  0
SECTION
  2
HEADER
  9
$ACADVER
  1
AC1015
  9
$ACADMAINTVER
 70
     6
  9
$DWGCODEPAGE
  3
ANSI_1252
  9
$INSBASE
 10
0.0
 20
0.0
 30
0.0
  9
$EXTMIN
 10
0.0
 20
0.0
 30
0.0
  9
$EXTMAX
 10
279.4
 20
215.9
 30
0.0
  9
$LIMMIN
 10
0.0
 20
0.0
  9
$LIMMAX
 10
279.4
 20
215.9
  9
$ORTHOMODE
 70
     0
  9
$REGENMODE
 70
     1
  9
$FILLMODE
 70
     1
  9
$QTEXTMODE
 70
     0
  9
$MIRRTEXT
 70
     1
  9
$LTSCALE
 40
1.0
  9
$ATTMODE
 70
     1
  9
$TEXTSIZE
 40
3.5
  9
$TRACEWID
 40
1.0
  9
$TEXTSTYLE
  7
Standard
  9
$CLAYER
  8
0
  9
$CELTYPE
  6
ByLayer
  9
$CECOLOR
 62
   256
  9
$CELTSCALE
 40
1.0
  9
$DISPSILH
 70
     0
  9
$DIMSCALE
 40
1.0
  9
$DIMASZ
 40
3.302
  9
$DIMEXO
 40
1.0
  9
$DIMDLI
 40
3.75
  9
$DIMRND
 40
0.0
  9
$DIMDLE
 40
0.0
  9
$DIMEXE
 40
1.0
  9
$DIMTP
 40
0.0
  9
$DIMTM
 40
0.0
  9
$DIMTXT
 40
3.5
  9
$DIMCEN
 40
2.5
  9
$DIMTSZ
 40
0.0
  9
$DIMTOL
 70
     0
  9
$DIMLIM
 70
     0
  9
$DIMTIH
 70
     1
  9
$DIMTOH
 70
     1
  9
$DIMSE1
 70
     0
  9
$DIMSE2
 70
     0
  9
$DIMTAD
 70
     1
  9
$DIMZIN
 70
     1
  9
$DIMBLK
  1

  9
$DIMASO
 70
     1
  9
$DIMSHO
 70
     1
  9
$DIMPOST
  1

  9
$DIMAPOST
  1

  9
$DIMALT
 70
     0
  9
$DIMALTD
 70
     3
  9
$DIMALTF
 40
0.0393700787
  9
$DIMLFAC
 40
2.0
  9
$DIMTOFL
 70
     1
  9
$DIMTVP
 40
0.0
  9
$DIMTIX
 70
     0
  9
$DIMSOXD
 70
     0
  9
$DIMSAH
 70
     0
  9
$DIMBLK1
  1

  9
$DIMBLK2
  1

  9
$DIMSTYLE
  2
ISO-25
  9
$DIMCLRD
 70
     0
  9
$DIMCLRE
 70
     0
  9
$DIMCLRT
 70
     0
  9
$DIMTFAC
 40
1.0
  9
$DIMGAP
 40
1.524
  9
$DIMJUST
 70
     0
  9
$DIMSD1
 70
     0
  9
$DIMSD2
 70
     0
  9
$DIMTOLJ
 70
     0
  9
$DIMTZIN
 70
     1
  9
$DIMALTZ
 70
     0
  9
$DIMALTTZ
 70
     0
  9
$DIMUPT
 70
     0
  9
$DIMDEC
 70
     2
  9
$DIMTDEC
 70
     2
  9
$DIMALTU
 70
     2
  9
$DIMALTTD
 70
     3
  9
$DIMTXSTY
  7
Standard
  9
$DIMAUNIT
 70
     0
  9
$DIMADEC
 70
     2
  9
$DIMALTRND
 40
0.0
  9
$DIMAZIN
 70
     0
  9
$DIMDSEP
 70
    44
  9
$DIMATFIT
 70
     3
  9
$DIMFRAC
 70
     0
  9
$DIMLDRBLK
  1

  9
$DIMLUNIT
 70
     2
  9
$DIMLWD
 70
    -2
  9
$DIMLWE
 70
    -2
  9
$DIMTMOVE
 70
     0
  9
$LUNITS
 70
     2
  9
$LUPREC
 70
     2
  9
$SKETCHINC
 40
1.0
  9
$FILLETRAD
 40
10.0
  9
$AUNITS
 70
     0
  9
$AUPREC
 70
     2
  9
$MENU
  1
.
  9
$ELEVATION
 40
0.0
  9
$PELEVATION
 40
0.0
  9
$THICKNESS
 40
0.0
  9
$LIMCHECK
 70
     0
  9
$CHAMFERA
 40
0.0
  9
$CHAMFERB
 40
0.0
  9
$CHAMFERC
 40
0.0
  9
$CHAMFERD
 40
0.0
  9
$SKPOLY
 70
     0
  9
$TDCREATE
 40
2459169.289570567
  9
$TDUCREATE
 40
2459169.622903901
  9
$TDUPDATE
 40
2459169.289575822
  9
$TDUUPDATE
 40
2459169.622909155
  9
$TDINDWG
 40
0.0000000116
  9
$TDUSRTIMER
 40
0.0000000116
  9
$USRTIMER
 70
     1
  9
$ANGBASE
 50
0.0
  9
$ANGDIR
 70
     0
  9
$PDMODE
 70
     0
  9
$PDSIZE
 40
-1.0
  9
$PLINEWID
 40
0.0
  9
$SPLFRAME
 70
     0
  9
$SPLINETYPE
 70
     6
  9
$SPLINESEGS
 70
     8
  9
$HANDSEED
  5
32F
  9
$SURFTAB1
 70
     6
  9
$SURFTAB2
 70
     6
  9
$SURFTYPE
 70
     6
  9
$SURFU
 70
     6
  9
$SURFV
 70
     6
  9
$UCSBASE
  2

  9
$UCSNAME
  2

  9
$UCSORG
 10
0.0
 20
0.0
 30
0.0
  9
$UCSXDIR
 10
1.0
 20
0.0
 30
0.0
  9
$UCSYDIR
 10
0.0
 20
1.0
 30
0.0
  9
$UCSORTHOREF
  2

  9
$UCSORTHOVIEW
 70
     0
  9
$UCSORGTOP
 10
0.0
 20
0.0
 30
0.0
  9
$UCSORGBOTTOM
 10
0.0
 20
0.0
 30
0.0
  9
$UCSORGLEFT
 10
0.0
 20
0.0
 30
0.0
  9
$UCSORGRIGHT
 10
0.0
 20
0.0
 30
0.0
  9
$UCSORGFRONT
 10
0.0
 20
0.0
 30
0.0
  9
$UCSORGBACK
 10
0.0
 20
0.0
 30
0.0
  9
$PUCSBASE
  2

  9
$PUCSNAME
  2

  9
$PUCSORG
 10
0.0
 20
0.0
 30
0.0
  9
$PUCSXDIR
 10
1.0
 20
0.0
 30
0.0
  9
$PUCSYDIR
 10
0.0
 20
1.0
 30
0.0
  9
$PUCSORTHOREF
  2

  9
$PUCSORTHOVIEW
 70
     0
  9
$PUCSORGTOP
 10
0.0
 20
0.0
 30
0.0
  9
$PUCSORGBOTTOM
 10
0.0
 20
0.0
 30
0.0
  9
$PUCSORGLEFT
 10
0.0
 20
0.0
 30
0.0
  9
$PUCSORGRIGHT
 10
0.0
 20
0.0
 30
0.0
  9
$PUCSORGFRONT
 10
0.0
 20
0.0
 30
0.0
  9
$PUCSORGBACK
 10
0.0
 20
0.0
 30
0.0
  9
$USERI1
 70
     0
  9
$USERI2
 70
     0
  9
$USERI3
 70
     0
  9
$USERI4
 70
     0
  9
$USERI5
 70
     0
  9
$USERR1
 40
0.0
  9
$USERR2
 40
0.0
  9
$USERR3
 40
0.0
  9
$USERR4
 40
0.0
  9
$USERR5
 40
0.0
  9
$WORLDVIEW
 70
     1
  9
$SHADEDGE
 70
     3
  9
$SHADEDIF
 70
    70
  9
$TILEMODE
 70
     1
  9
$MAXACTVP
 70
    64
  9
$PINSBASE
 10
0.0
 20
0.0
 30
0.0
  9
$PLIMCHECK
 70
     0
  9
$PEXTMIN
 10
1.0000000000E+20
 20
1.0000000000E+20
 30
1.0000000000E+20
  9
$PEXTMAX
 10
-1.0000000000E+20
 20
-1.0000000000E+20
 30
-1.0000000000E+20
  9
$PLIMMIN
 10
0.0
 20
0.0
  9
$PLIMMAX
 10
420.0
 20
297.0
  9
$UNITMODE
 70
     0
  9
$VISRETAIN
 70
     1
  9
$PLINEGEN
 70
     0
  9
$PSLTSCALE
 70
     1
  9
$TREEDEPTH
 70
  3020
  9
$CMLSTYLE
  2
Standard
  9
$CMLJUST
 70
     0
  9
$CMLSCALE
 40
20.0
  9
$PROXYGRAPHICS
 70
     1
  9
$MEASUREMENT
 70
     1
  9
$CELWEIGHT
370
    -1
  9
$ENDCAPS
280
     0
  9
$JOINSTYLE
280
     0
  9
$LWDISPLAY
290
     1
  9
$INSUNITS
 70
     4
  9
$HYPERLINKBASE
  1

  9
$STYLESHEET
  1

  9
$XEDIT
290
     1
  9
$CEPSNTYPE
380
     0
  9
$PSTYLEMODE
290
     1
  9
$FINGERPRINTGUID
  2
{8d6d1c44-71d0-4c4e-a239-9663b261233b}
  9
$VERSIONGUID
  2
{FAEB1C32-E019-11D5-929B-00C0DF256EC4}
  9
$EXTNAMES
290
     1
  9
$PSVPSCALE
 40
0.0
  9
$OLESTARTUP
290
     0
  0
ENDSEC
  0
SECTION
  2
CLASSES
  0
CLASS
  1
ACDBDICTIONARYWDFLT
  2
AcDbDictionaryWithDefault
  3
ObjectDBX Classes
 90
        0
280
     0
281
     0
  0
CLASS
  1
VISUALSTYLE
  2
AcDbVisualStyle
  3
ObjectDBX Classes
 90
     4095
280
     0
281
     0
  0
CLASS
  1
MATERIAL
  2
AcDbMaterial
  3
ObjectDBX Classes
 90
     1153
280
     0
281
     0
  0
CLASS
  1
SCALE
  2
AcDbScale
  3
ObjectDBX Classes
 90
     1153
280
     0
281
     0
  0
CLASS
  1
TABLESTYLE
  2
AcDbTableStyle
  3
ObjectDBX Classes
 90
     4095
280
     0
281
     0
  0
CLASS
  1
MLEADERSTYLE
  2
AcDbMLeaderStyle
  3
ACDB_MLEADERSTYLE_CLASS
 90
     4095
280
     0
281
     0
  0
CLASS
  1
SUN
  2
AcDbSun
  3
SCENEOE
 90
     1153
280
     0
281
     0
  0
CLASS
  1
ACDBPLACEHOLDER
  2
AcDbPlaceHolder
  3
ObjectDBX Classes
 90
        0
280
     0
281
     0
  0
CLASS
  1
LAYOUT
  2
AcDbLayout
  3
ObjectDBX Classes
 90
        0
280
     0
281
     0
  0
ENDSEC
  0
SECTION
  2
TABLES
  0
TABLE
  2
VPORT
  5
8
330
0
100
AcDbSymbolTable
 70
     1
  0
VPORT
  5
29
330
8
100
AcDbSymbolTableRecord
100
AcDbViewportTableRecord
  2
*Active
 70
     0
 10
0.0
 20
0.0
 11
1.0
 21
1.0
 12
139.7
 22
107.95
 13
0.0
 23
0.0
 14
10.0
 24
10.0
 15
10.0
 25
10.0
 16
0.0
 26
0.0
 36
1.0
 17
0.0
 27
0.0
 37
0.0
 40
215.9
 41
1.2941176471
 42
50.0
 43
0.0
 44
0.0
 50
0.0
 51
0.0
 71
     0
 72
  2000
 73
     1
 74
     3
 75
     0
 76
     0
 77
     0
 78
     0
281
     0
 65
     1
110
0.0
120
0.0
130
0.0
111
1.0
121
0.0
131
0.0
112
0.0
122
1.0
132
0.0
 79
     0
146
0.0
  0
ENDTAB
  0
TABLE
  2
LTYPE
  5
5
330
0
100
AcDbSymbolTable
 70
     6
  0
LTYPE
  5
14
330
5
100
AcDbSymbolTableRecord
100
AcDbLinetypeTableRecord
  2
ByBlock
 70
     0
  3

 72
    65
 73
     0
 40
0.0
  0
LTYPE
  5
15
330
5
100
AcDbSymbolTableRecord
100
AcDbLinetypeTableRecord
  2
ByLayer
 70
     0
  3

 72
    65
 73
     0
 40
0.0
  0
LTYPE
  5
16
330
5
100
AcDbSymbolTableRecord
100
AcDbLinetypeTableRecord
  2
Continuous
 70
     0
  3
Solid line
 72
    65
 73
     0
 40
0.0
  0
LTYPE
  5
6E
330
5
100
AcDbSymbolTableRecord
100
AcDbLinetypeTableRecord
  2
HIDDEN
 70
     0
  3
Hidden __ __ __ __ __ __ __ __ __ __ __ __ __ __
 72
    65
 73
     2
 40
1.905
 49
1.27
 74
     0
 49
-0.635
 74
     0
  0
LTYPE
  5
6F
330
5
100
AcDbSymbolTableRecord
100
AcDbLinetypeTableRecord
  2
PHANTOM
 70
     0
  3
Phantom ______  __  __  ______  __  __  ______
 72
    65
 73
     6
 40
12.7
 49
6.35
 74
     0
 49
-1.27
 74
     0
 49
1.27
 74
     0
 49
-1.27
 74
     0
 49
1.27
 74
     0
 49
-1.27
 74
     0
  0
LTYPE
  5
70
330
5
100
AcDbSymbolTableRecord
100
AcDbLinetypeTableRecord
  2
CENTER
 70
     0
  3
Center ____ _ ____ _ ____ _ ____ _ ____ _ ____
 72
    65
 73
     4
 40
10.16
 49
6.35
 74
     0
 49
-1.27
 74
     0
 49
1.27
 74
     0
 49
-1.27
 74
     0
  0
LTYPE
  5
71
330
5
100
AcDbSymbolTableRecord
100
AcDbLinetypeTableRecord
  2
CENTERX2
 70
     0
  3
Center (2x) ________  __  ________  __  _____
 72
    65
 73
     4
 40
20.32
 49
12.7
 74
     0
 49
-2.54
 74
     0
 49
2.54
 74
     0
 49
-2.54
 74
     0
  0
LTYPE
  5
72
330
5
100
AcDbSymbolTableRecord
100
AcDbLinetypeTableRecord
  2
DOT2
 70
     0
  3
Dot (.5x) ........................................
 72
    65
 73
     2
 40
0.635
 49
0.0
 74
     0
 49
-0.635
 74
     0
  0
ENDTAB
  0
TABLE
  2
LAYER
  5
2
330
0
100
AcDbSymbolTable
 70
     2
  0
LAYER
  5
10
330
2
100
AcDbSymbolTableRecord
100
AcDbLayerTableRecord
  2
0
 70
     0
 62
     7
  6
Continuous
370
    -3
390
F
  0
LAYER
  5
73
330
2
100
AcDbSymbolTableRecord
100
AcDbLayerTableRecord
  2
FORMAT
 70
     0
 62
     7
  6
Continuous
370
    -3
390
F
  0
ENDTAB
  0
TABLE
  2
STYLE
  5
3
330
0
100
AcDbSymbolTable
 70
     2
  0
STYLE
  5
11
330
3
100
AcDbSymbolTableRecord
100
AcDbTextStyleTableRecord
  2
Standard
 70
     0
 40
0.0
 41
1.0
 50
0.0
 71
     0
 42
3.5
  3
txt
  4

  0
STYLE
  5
BE
330
3
100
AcDbSymbolTableRecord
100
AcDbTextStyleTableRecord
  2
SLDTEXTSTYLE0
 70
     0
 40
0.0
 41
0.75
 50
0.0
 71
     0
 42
3.5
  3
TXT
  4

  0
ENDTAB
  0
TABLE
  2
VIEW
  5
6
330
0
100
AcDbSymbolTable
 70
     0
  0
ENDTAB
  0
TABLE
  2
UCS
  5
7
330
0
100
AcDbSymbolTable
 70
     0
  0
ENDTAB
  0
TABLE
  2
APPID
  5
9
330
0
100
AcDbSymbolTable
 70
     1
  0
APPID
  5
12
330
9
100
AcDbSymbolTableRecord
100
AcDbRegAppTableRecord
  2
ACAD
 70
     0
  0
ENDTAB
  0
TABLE
  2
DIMSTYLE
  5
A
330
0
100
AcDbSymbolTable
 70
     7
100
AcDbDimStyleTable
  0
DIMSTYLE
105
27
330
A
100
AcDbSymbolTableRecord
100
AcDbDimStyleTableRecord
  2
ISO-25
 70
     0
 41
2.5
 42
0.625
 43
3.75
 44
1.25
 73
     0
 74
     0
 77
     1
 78
     8
140
2.5
141
2.5
143
0.0393700787
147
0.625
171
     3
172
     1
178
     0
271
     2
272
     2
274
     3
278
    44
283
     0
284
     8
340
11
  0
DIMSTYLE
105
BF
102
{ACAD_REACTORS
330
BD
330
C8
330
D2
330
DC
330
15A
102
}
330
A
100
AcDbSymbolTableRecord
100
AcDbDimStyleTableRecord
  2
SLDDIMSTYLE0
 70
     0
 41
3.302
 44
0.0
 45
0.000000001
 73
     0
 74
     0
 77
     1
 78
     4
 79
     1
140
3.5
147
0.875
173
     1
178
     0
271
     2
272
     2
276
     2
284
    12
340
BE
  0
DIMSTYLE
105
E7
102
{ACAD_REACTORS
330
E6
330
F2
330
FF
330
10A
330
116
330
122
330
1EA
330
1F6
330
202
330
20C
330
243
330
264
330
270
102
}
330
A
100
AcDbSymbolTableRecord
100
AcDbDimStyleTableRecord
  2
SLDDIMSTYLE1
 70
     0
 41
3.302
 44
0.0
 45
0.000000001
 73
     0
 74
     0
 77
     1
 78
     4
 79
     1
140
3.5
147
0.875
172
     1
173
     1
178
     0
271
     2
272
     2
276
     2
284
    12
289
     0
340
BE
  0
DIMSTYLE
105
14E
102
{ACAD_REACTORS
330
14D
330
165
102
}
330
A
100
AcDbSymbolTableRecord
100
AcDbDimStyleTableRecord
  2
SLDDIMSTYLE2
 70
     0
 41
3.302
 44
0.0
 45
0.000000001
 73
     0
 74
     0
 77
     1
 78
     4
 79
     1
140
3.5
141
0.0
147
0.875
172
     1
173
     1
178
     0
271
     2
272
     2
276
     2
284
    12
340
BE
341
14F
343
14F
  0
DIMSTYLE
105
219
102
{ACAD_REACTORS
330
218
330
225
330
22E
330
239
102
}
330
A
100
AcDbSymbolTableRecord
100
AcDbDimStyleTableRecord
  2
SLDDIMSTYLE3
 70
     0
 41
3.302
 44
0.0
 73
     0
 74
     0
 77
     1
 78
    12
 79
     3
140
3.5
147
0.875
173
     1
178
     0
179
     2
272
     2
276
     2
284
    12
340
BE
  0
DIMSTYLE
105
250
102
{ACAD_REACTORS
330
24F
102
}
330
A
100
AcDbSymbolTableRecord
100
AcDbDimStyleTableRecord
  2
SLDDIMSTYLE4
 70
     0
 41
3.302
 44
0.0
 45
0.000000001
 73
     0
 74
     0
 77
     1
 78
     4
 79
     1
140
3.5
141
0.0
147
0.875
173
     1
178
     0
271
     2
272
     2
276
     2
284
    12
340
BE
  0
DIMSTYLE
105
259
102
{ACAD_REACTORS
330
258
102
}
330
A
100
AcDbSymbolTableRecord
100
AcDbDimStyleTableRecord
  2
SLDDIMSTYLE5
 70
     0
 41
3.302
 44
0.0
 45
0.000000001
 73
     0
 74
     0
 77
     1
 78
    12
 79
     3
140
3.5
147
0.875
173
     1
178
     0
271
     2
272
     2
276
     2
284
    12
340
BE
  0
ENDTAB
  0
TABLE
  2
BLOCK_RECORD
  5
1
330
0
100
AcDbSymbolTable
 70
    37
  0
BLOCK_RECORD
  5
1F
330
1
100
AcDbSymbolTableRecord
100
AcDbBlockTableRecord
  2
*Model_Space
340
22
  0
BLOCK_RECORD
  5
1B
330
1
100
AcDbSymbolTableRecord
100
AcDbBlockTableRecord
  2
*Paper_Space
340
1E
  0
BLOCK_RECORD
  5
23
330
1
100
AcDbSymbolTableRecord
100
AcDbBlockTableRecord
  2
*Paper_Space0
340
26
  0
BLOCK_RECORD
  5
C0
330
1
100
AcDbSymbolTableRecord
100
AcDbBlockTableRecord
  2
_D
340
0
  0
BLOCK_RECORD
  5
C9
330
1
100
AcDbSymbolTableRecord
100
AcDbBlockTableRecord
  2
_D_1
340
0
  0
BLOCK_RECORD
  5
D3
330
1
100
AcDbSymbolTableRecord
100
AcDbBlockTableRecord
  2
_D_2
340
0
  0
BLOCK_RECORD
  5
DD
330
1
100
AcDbSymbolTableRecord
100
AcDbBlockTableRecord
  2
_D_3
340
0
  0
BLOCK_RECORD
  5
E8
330
1
100
AcDbSymbolTableRecord
100
AcDbBlockTableRecord
  2
_D_4
340
0
  0
BLOCK_RECORD
  5
F3
330
1
100
AcDbSymbolTableRecord
100
AcDbBlockTableRecord
  2
_D_5
340
0
  0
BLOCK_RECORD
  5
100
330
1
100
AcDbSymbolTableRecord
100
AcDbBlockTableRecord
  2
_D_6
340
0
  0
BLOCK_RECORD
  5
10B
330
1
100
AcDbSymbolTableRecord
100
AcDbBlockTableRecord
  2
_D_7
340
0
  0
BLOCK_RECORD
  5
117
330
1
100
AcDbSymbolTableRecord
100
AcDbBlockTableRecord
  2
_D_8
340
0
  0
BLOCK_RECORD
  5
123
330
1
100
AcDbSymbolTableRecord
100
AcDbBlockTableRecord
  2
_D_9
340
0
  0
BLOCK_RECORD
  5
14F
330
1
100
AcDbSymbolTableRecord
100
AcDbBlockTableRecord
  2
_None
340
0
  0
BLOCK_RECORD
  5
152
330
1
100
AcDbSymbolTableRecord
100
AcDbBlockTableRecord
  2
_D_10
340
0
  0
BLOCK_RECORD
  5
15B
330
1
100
AcDbSymbolTableRecord
100
AcDbBlockTableRecord
  2
_D_11
340
0
  0
BLOCK_RECORD
  5
166
330
1
100
AcDbSymbolTableRecord
100
AcDbBlockTableRecord
  2
_D_12
340
0
  0
BLOCK_RECORD
  5
16E
330
1
100
AcDbSymbolTableRecord
100
AcDbBlockTableRecord
  2
SW_CENTERMARKSYMBOL_0
340
0
102
{BLKREFS
331
179
102
}
  0
BLOCK_RECORD
  5
17A
330
1
100
AcDbSymbolTableRecord
100
AcDbBlockTableRecord
  2
SW_CENTERMARKSYMBOL_1
340
0
102
{BLKREFS
331
185
102
}
  0
BLOCK_RECORD
  5
186
330
1
100
AcDbSymbolTableRecord
100
AcDbBlockTableRecord
  2
SW_CENTERMARKSYMBOL_2
340
0
102
{BLKREFS
331
191
102
}
  0
BLOCK_RECORD
  5
192
330
1
100
AcDbSymbolTableRecord
100
AcDbBlockTableRecord
  2
SW_CENTERMARKSYMBOL_3
340
0
102
{BLKREFS
331
19D
102
}
  0
BLOCK_RECORD
  5
19E
330
1
100
AcDbSymbolTableRecord
100
AcDbBlockTableRecord
  2
SW_CENTERMARKSYMBOL_4
340
0
102
{BLKREFS
331
1A9
102
}
  0
BLOCK_RECORD
  5
1AA
330
1
100
AcDbSymbolTableRecord
100
AcDbBlockTableRecord
  2
SW_CENTERMARKSYMBOL_5
340
0
102
{BLKREFS
331
1B5
102
}
  0
BLOCK_RECORD
  5
1B6
330
1
100
AcDbSymbolTableRecord
100
AcDbBlockTableRecord
  2
SW_CENTERMARKSYMBOL_6
340
0
102
{BLKREFS
331
1C1
102
}
  0
BLOCK_RECORD
  5
1EB
330
1
100
AcDbSymbolTableRecord
100
AcDbBlockTableRecord
  2
_D_13
340
0
  0
BLOCK_RECORD
  5
1F7
330
1
100
AcDbSymbolTableRecord
100
AcDbBlockTableRecord
  2
_D_14
340
0
  0
BLOCK_RECORD
  5
203
330
1
100
AcDbSymbolTableRecord
100
AcDbBlockTableRecord
  2
_D_15
340
0
  0
BLOCK_RECORD
  5
20D
330
1
100
AcDbSymbolTableRecord
100
AcDbBlockTableRecord
  2
_D_16
340
0
  0
BLOCK_RECORD
  5
21A
330
1
100
AcDbSymbolTableRecord
100
AcDbBlockTableRecord
  2
_D_17
340
0
  0
BLOCK_RECORD
  5
226
330
1
100
AcDbSymbolTableRecord
100
AcDbBlockTableRecord
  2
_D_18
340
0
  0
BLOCK_RECORD
  5
22F
330
1
100
AcDbSymbolTableRecord
100
AcDbBlockTableRecord
  2
_D_19
340
0
  0
BLOCK_RECORD
  5
23A
330
1
100
AcDbSymbolTableRecord
100
AcDbBlockTableRecord
  2
_D_20
340
0
  0
BLOCK_RECORD
  5
244
330
1
100
AcDbSymbolTableRecord
100
AcDbBlockTableRecord
  2
_D_21
340
0
  0
BLOCK_RECORD
  5
251
330
1
100
AcDbSymbolTableRecord
100
AcDbBlockTableRecord
  2
_D_22
340
0
  0
BLOCK_RECORD
  5
25A
330
1
100
AcDbSymbolTableRecord
100
AcDbBlockTableRecord
  2
_D_23
340
0
  0
BLOCK_RECORD
  5
265
330
1
100
AcDbSymbolTableRecord
100
AcDbBlockTableRecord
  2
_D_24
340
0
  0
BLOCK_RECORD
  5
271
330
1
100
AcDbSymbolTableRecord
100
AcDbBlockTableRecord
  2
_D_25
340
0
  0
BLOCK_RECORD
  5
27A
330
1
100
AcDbSymbolTableRecord
100
AcDbBlockTableRecord
  2
SW_CENTERMARKSYMBOL_7
340
0
102
{BLKREFS
331
285
102
}
  0
BLOCK_RECORD
  5
286
330
1
100
AcDbSymbolTableRecord
100
AcDbBlockTableRecord
  2
SW_CENTERMARKSYMBOL_8
340
0
102
{BLKREFS
331
291
102
}
  0
ENDTAB
  0
ENDSEC
  0
SECTION
  2
BLOCKS
  0
BLOCK
  5
20
330
1F
100
AcDbEntity
  8
0
100
AcDbBlockBegin
  2
*Model_Space
 70
     0
 10
0.0
 20
0.0
 30
0.0
  3
*Model_Space
  1

  0
ENDBLK
  5
21
330
1F
100
AcDbEntity
  8
0
100
AcDbBlockEnd
  0
BLOCK
  5
1C
330
1B
100
AcDbEntity
 67
     1
  8
0
100
AcDbBlockBegin
  2
*Paper_Space
 70
     0
 10
0.0
 20
0.0
 30
0.0
  3
*Paper_Space
  1

  0
ENDBLK
  5
1D
330
1B
100
AcDbEntity
 67
     1
  8
0
100
AcDbBlockEnd
  0
BLOCK
  5
24
330
23
100
AcDbEntity
  8
0
100
AcDbBlockBegin
  2
*Paper_Space0
 70
     0
 10
0.0
 20
0.0
 30
0.0
  3
*Paper_Space0
  1

  0
ENDBLK
  5
25
330
23
100
AcDbEntity
  8
0
100
AcDbBlockEnd
  0
BLOCK
  5
C1
330
C0
100
AcDbEntity
  8
0
100
AcDbBlockBegin
  2
_D
 70
     0
 10
0.0
 20
0.0
 30
0.0
  3
_D
  1

  0
SOLID
  5
C3
330
C0
100
AcDbEntity
  8
0
  6
Continuous
 62
     7
370
    18
100
AcDbTrace
 10
148.3570483666
 20
167.9488420912
 30
0.0
 11
145.0550483666
 21
168.4568420912
 31
0.0
 12
145.0550483666
 22
167.4408420912
 32
0.0
 13
145.0550483666
 23
167.4408420912
 33
0.0
  0
SOLID
  5
C4
330
C0
100
AcDbEntity
  8
0
  6
Continuous
 62
     7
370
    18
100
AcDbTrace
 10
94.8570483666
 20
167.9488420912
 30
0.0
 11
98.1590483666
 21
167.4408420912
 31
0.0
 12
98.1590483666
 22
168.4568420912
 32
0.0
 13
98.1590483666
 23
168.4568420912
 33
0.0
  0
LINE
  5
C5
330
C0
100
AcDbEntity
  8
0
  6
Continuous
 62
     7
370
     0
100
AcDbLine
 10
94.8570483666
 20
161.4387704195
 30
0.0
 11
94.8570483666
 21
168.9488420912
 31
0.0
  0
LINE
  5
C6
330
C0
100
AcDbEntity
  8
0
  6
Continuous
 62
     7
370
     0
100
AcDbLine
 10
148.3570483666
 20
167.9488420912
 30
0.0
 11
94.8570483666
 21
167.9488420912
 31
0.0
  0
MTEXT
  5
C7
330
C0
100
AcDbEntity
  8
0
  6
Continuous
 62
     7
370
    18
100
AcDbMText
 10
112.7187243009
 20
172.4605790057
 30
0.0
 40
3.5
 41
0.0
 71
     1
 72
     1
  1
53.50
  7
SLDTEXTSTYLE0
 73
     1
 44
1.0
  0
ENDBLK
  5
C2
330
C0
100
AcDbEntity
  8
0
100
AcDbBlockEnd
  0
BLOCK
  5
CA
330
C9
100
AcDbEntity
  8
0
100
AcDbBlockBegin
  2
_D_1
 70
     0
 10
0.0
 20
0.0
 30
0.0
  3
_D_1
  1

  0
SOLID
  5
CC
330
C9
100
AcDbEntity
  8
0
  6
Continuous
 62
     7
370
    18
100
AcDbTrace
 10
144.376397905
 20
129.3379515803
 30
0.0
 11
144.8841726176
 21
132.6399862321
 31
0.0
 12
143.86817262
 22
132.6399169132
 32
0.0
 13
143.86817262
 23
132.6399169132
 33
0.0
  0
SOLID
  5
CD
330
C9
100
AcDbEntity
  8
0
  6
Continuous
 62
     7
370
    18
100
AcDbTrace
 10
144.3744194519
 20
158.3359652832
 30
0.0
 11
143.8666447393
 21
155.0339306314
 31
0.0
 12
144.8826447369
 22
155.0339999503
 32
0.0
 13
144.8826447369
 23
155.0339999503
 33
0.0
  0
LINE
  5
CE
330
C9
100
AcDbEntity
  8
0
  6
Continuous
 62
     7
370
     0
100
AcDbLine
 10
143.8570483689
 20
129.3379161466
 30
0.0
 11
143.3763979073
 21
129.3378833531
 31
0.0
  0
LINE
  5
CF
330
C9
100
AcDbEntity
  8
0
  6
Continuous
 62
     7
370
     0
100
AcDbLine
 10
143.8550699158
 20
158.3359298494
 30
0.0
 11
143.3744194543
 21
158.335897056
 31
0.0
  0
LINE
  5
D0
330
C9
100
AcDbEntity
  8
0
  6
Continuous
 62
     7
370
     0
100
AcDbLine
 10
144.376397905
 20
129.3379515803
 30
0.0
 11
144.3744194519
 21
158.3359652832
 31
0.0
  0
MTEXT
  5
D1
330
C9
100
AcDbEntity
  8
0
  6
Continuous
 62
     7
370
    18
100
AcDbMText
 10
139.8640531511
 20
138.2468460674
 30
0.0
 40
3.5
 41
0.0
 71
     1
 72
     1
  1
29.00
  7
SLDTEXTSTYLE0
 11
-6.822719215645325E-5
 21
0.9999999976725251
 31
0.0
 73
     1
 44
1.0
  0
ENDBLK
  5
CB
330
C9
100
AcDbEntity
  8
0
100
AcDbBlockEnd
  0
BLOCK
  5
D4
330
D3
100
AcDbEntity
  8
0
100
AcDbBlockBegin
  2
_D_2
 70
     0
 10
0.0
 20
0.0
 30
0.0
  3
_D_2
  1

  0
SOLID
  5
D6
330
D3
100
AcDbEntity
  8
0
  6
Continuous
 62
     7
370
    18
100
AcDbTrace
 10
95.2922973635
 20
158.1381590506
 30
0.0
 11
94.7842973635
 21
154.8361590506
 31
0.0
 12
95.8002973635
 22
154.8361590506
 32
0.0
 13
95.8002973635
 23
154.8361590506
 33
0.0
  0
SOLID
  5
D7
330
D3
100
AcDbEntity
  8
0
  6
Continuous
 62
     7
370
    18
100
AcDbTrace
 10
95.2922973635
 20
129.3379843738
 30
0.0
 11
95.8002973635
 21
132.6399843738
 31
0.0
 12
94.7842973635
 22
132.6399843738
 32
0.0
 13
94.7842973635
 23
132.6399843738
 33
0.0
  0
LINE
  5
D8
330
D3
100
AcDbEntity
  8
0
  6
Continuous
 62
     7
370
     0
100
AcDbLine
 10
95.8570483666
 20
158.1381590506
 30
0.0
 11
96.2922973635
 21
158.1381590506
 31
0.0
  0
LINE
  5
D9
330
D3
100
AcDbEntity
  8
0
  6
Continuous
 62
     7
370
     0
100
AcDbLine
 10
95.8570483666
 20
129.3379843738
 30
0.0
 11
96.2922973635
 21
129.3379843738
 31
0.0
  0
LINE
  5
DA
330
D3
100
AcDbEntity
  8
0
  6
Continuous
 62
     7
370
     0
100
AcDbLine
 10
95.2922973635
 20
158.1381590506
 30
0.0
 11
95.2922973635
 21
129.3379843738
 31
0.0
  0
MTEXT
  5
DB
330
D3
100
AcDbEntity
  8
0
  6
Continuous
 62
     7
370
    18
100
AcDbMText
 10
90.780560449
 20
138.247153877
 30
0.0
 40
3.5
 41
0.0
 71
     1
 72
     1
  1
28.80
  7
SLDTEXTSTYLE0
 11
-7.044195017643634E-15
 21
1.0
 31
0.0
 73
     1
 44
1.0
  0
ENDBLK
  5
D5
330
D3
100
AcDbEntity
  8
0
100
AcDbBlockEnd
  0
BLOCK
  5
DE
330
DD
100
AcDbEntity
  8
0
100
AcDbBlockBegin
  2
_D_3
 70
     0
 10
0.0
 20
0.0
 30
0.0
  3
_D_3
  1

  0
SOLID
  5
E0
330
DD
100
AcDbEntity
  8
0
  6
Continuous
 62
     7
370
    18
100
AcDbTrace
 10
89.6908369305
 20
161.3379843738
 30
0.0
 11
89.1828369305
 21
158.0359843738
 31
0.0
 12
90.1988369305
 22
158.0359843738
 32
0.0
 13
90.1988369305
 23
158.0359843738
 33
0.0
  0
SOLID
  5
E1
330
DD
100
AcDbEntity
  8
0
  6
Continuous
 62
     7
370
    18
100
AcDbTrace
 10
89.6908369305
 20
126.3379843738
 30
0.0
 11
90.1988369305
 21
129.6399843738
 31
0.0
 12
89.1828369305
 22
129.6399843738
 32
0.0
 13
89.1828369305
 23
129.6399843738
 33
0.0
  0
LINE
  5
E2
330
DD
100
AcDbEntity
  8
0
  6
Continuous
 62
     7
370
     0
100
AcDbLine
 10
144.3570483666
 20
161.3379843738
 30
0.0
 11
88.6908369305
 21
161.3379843738
 31
0.0
  0
LINE
  5
E3
330
DD
100
AcDbEntity
  8
0
  6
Continuous
 62
     7
370
     0
100
AcDbLine
 10
144.3570483666
 20
126.3379843738
 30
0.0
 11
88.6908369305
 21
126.3379843738
 31
0.0
  0
LINE
  5
E4
330
DD
100
AcDbEntity
  8
0
  6
Continuous
 62
     7
370
     0
100
AcDbLine
 10
89.6908369305
 20
161.3379843738
 30
0.0
 11
89.6908369305
 21
126.3379843738
 31
0.0
  0
MTEXT
  5
E5
330
DD
100
AcDbEntity
  8
0
  6
Continuous
 62
     7
370
    18
100
AcDbMText
 10
85.1791000159
 20
138.247153877
 30
0.0
 40
3.5
 41
0.0
 71
     1
 72
     1
  1
35.00
  7
SLDTEXTSTYLE0
 11
-7.044195017643634E-15
 21
1.0
 31
0.0
 73
     1
 44
1.0
  0
ENDBLK
  5
DF
330
DD
100
AcDbEntity
  8
0
100
AcDbBlockEnd
  0
BLOCK
  5
E9
330
E8
100
AcDbEntity
  8
0
100
AcDbBlockBegin
  2
_D_4
 70
     0
 10
0.0
 20
0.0
 30
0.0
  3
_D_4
  1

  0
SOLID
  5
EB
330
E8
100
AcDbEntity
  8
0
  6
Continuous
 62
     7
370
    18
100
AcDbTrace
 10
166.4528863021
 20
152.3379843738
 30
0.0
 11
166.9608863021
 21
155.6399843738
 31
0.0
 12
165.9448863021
 22
155.6399843738
 32
0.0
 13
165.9448863021
 23
155.6399843738
 33
0.0
  0
SOLID
  5
EC
330
E8
100
AcDbEntity
  8
0
  6
Continuous
 62
     7
370
    18
100
AcDbTrace
 10
166.4528863021
 20
135.3379843738
 30
0.0
 11
165.9448863021
 21
132.0359843738
 31
0.0
 12
166.9608863021
 22
132.0359843738
 32
0.0
 13
166.9608863021
 23
132.0359843738
 33
0.0
  0
LINE
  5
ED
330
E8
100
AcDbEntity
  8
0
  6
Continuous
 62
     7
370
     0
100
AcDbLine
 10
166.4528863021
 20
152.3379843738
 30
0.0
 11
166.4528863021
 21
158.6879843738
 31
0.0
  0
LINE
  5
EE
330
E8
100
AcDbEntity
  8
0
  6
Continuous
 62
     7
370
     0
100
AcDbLine
 10
166.4528863021
 20
152.3379843738
 30
0.0
 11
166.4528863021
 21
135.3379843738
 31
0.0
  0
LINE
  5
EF
330
E8
100
AcDbEntity
  8
0
  6
Continuous
 62
     7
370
     0
100
AcDbLine
 10
166.4528863021
 20
135.3379843738
 30
0.0
 11
166.4528863021
 21
128.9879843738
 31
0.0
  0
MTEXT
  5
F0
330
E8
100
AcDbEntity
  8
0
  6
Continuous
 62
     7
370
    18
100
AcDbMText
 10
161.9411492129
 20
135.6079351778
 30
0.0
 40
3.5
 41
0.0
 71
     1
 72
     1
  1
%%c
  7
SLDTEXTSTYLE0
 11
-7.044195017643634E-15
 21
1.0
 31
0.0
 73
     1
 44
1.0
  0
MTEXT
  5
F1
330
E8
100
AcDbEntity
  8
0
  6
Continuous
 62
     7
370
    18
100
AcDbMText
 10
161.8876770362
 20
140.8863725762
 30
0.0
 40
3.5
 41
0.0
 71
     1
 72
     1
  1
17.00
  7
SLDTEXTSTYLE0
 11
-7.044195017643634E-15
 21
1.0
 31
0.0
 73
     1
 44
1.0
  0
ENDBLK
  5
EA
330
E8
100
AcDbEntity
  8
0
100
AcDbBlockEnd
  0
BLOCK
  5
F4
330
F3
100
AcDbEntity
  8
0
100
AcDbBlockBegin
  2
_D_5
 70
     0
 10
0.0
 20
0.0
 30
0.0
  3
_D_5
  1

  0
SOLID
  5
F6
330
F3
100
AcDbEntity
  8
0
  6
Continuous
 62
     7
370
    18
100
AcDbTrace
 10
155.5299767061
 20
154.1879843738
 30
0.0
 11
156.0379767061
 21
157.4899843738
 31
0.0
 12
155.0219767061
 22
157.4899843738
 32
0.0
 13
155.0219767061
 23
157.4899843738
 33
0.0
  0
SOLID
  5
F7
330
F3
100
AcDbEntity
  8
0
  6
Continuous
 62
     7
370
    18
100
AcDbTrace
 10
155.5299767061
 20
133.4879843738
 30
0.0
 11
155.0219767061
 21
130.1859843738
 31
0.0
 12
156.0379767061
 22
130.1859843738
 32
0.0
 13
156.0379767061
 23
130.1859843738
 33
0.0
  0
LINE
  5
F8
330
F3
100
AcDbEntity
  8
0
  6
Continuous
 62
     7
370
     0
100
AcDbLine
 10
156.3570483666
 20
154.1879843738
 30
0.0
 11
156.5299767061
 21
154.1879843738
 31
0.0
  0
LINE
  5
F9
330
F3
100
AcDbEntity
  8
0
  6
Continuous
 62
     7
370
     0
100
AcDbLine
 10
156.3570483666
 20
133.4879843738
 30
0.0
 11
156.5299767061
 21
133.4879843738
 31
0.0
  0
LINE
  5
FA
330
F3
100
AcDbEntity
  8
0
  6
Continuous
 62
     7
370
     0
100
AcDbLine
 10
155.5299767061
 20
154.1879843738
 30
0.0
 11
155.5299767061
 21
160.5379843738
 31
0.0
  0
LINE
  5
FB
330
F3
100
AcDbEntity
  8
0
  6
Continuous
 62
     7
370
     0
100
AcDbLine
 10
155.5299767061
 20
154.1879843738
 30
0.0
 11
155.5299767061
 21
133.4879843738
 31
0.0
  0
LINE
  5
FC
330
F3
100
AcDbEntity
  8
0
  6
Continuous
 62
     7
370
     0
100
AcDbLine
 10
155.5299767061
 20
133.4879843738
 30
0.0
 11
155.5299767061
 21
127.1379843738
 31
0.0
  0
MTEXT
  5
FD
330
F3
100
AcDbEntity
  8
0
  6
Continuous
 62
     7
370
    18
100
AcDbMText
 10
151.0182396169
 20
135.6079351778
 30
0.0
 40
3.5
 41
0.0
 71
     1
 72
     1
  1
%%c
  7
SLDTEXTSTYLE0
 11
-7.044195017643634E-15
 21
1.0
 31
0.0
 73
     1
 44
1.0
  0
MTEXT
  5
FE
330
F3
100
AcDbEntity
  8
0
  6
Continuous
 62
     7
370
    18
100
AcDbMText
 10
150.9647674402
 20
140.8863725762
 30
0.0
 40
3.5
 41
0.0
 71
     1
 72
     1
  1
20.70
  7
SLDTEXTSTYLE0
 11
-7.044195017643634E-15
 21
1.0
 31
0.0
 73
     1
 44
1.0
  0
ENDBLK
  5
F5
330
F3
100
AcDbEntity
  8
0
100
AcDbBlockEnd
  0
BLOCK
  5
101
330
100
100
AcDbEntity
  8
0
100
AcDbBlockBegin
  2
_D_6
 70
     0
 10
0.0
 20
0.0
 30
0.0
  3
_D_6
  1

  0
SOLID
  5
103
330
100
100
AcDbEntity
  8
0
  6
Continuous
 62
     7
370
    18
100
AcDbTrace
 10
145.3570483666
 20
180.9450126265
 30
0.0
 11
142.0550483666
 21
181.4530126265
 31
0.0
 12
142.0550483666
 22
180.4370126265
 32
0.0
 13
142.0550483666
 23
180.4370126265
 33
0.0
  0
SOLID
  5
104
330
100
100
AcDbEntity
  8
0
  6
Continuous
 62
     7
370
    18
100
AcDbTrace
 10
148.3570483666
 20
180.9450126265
 30
0.0
 11
151.6590483666
 21
180.4370126265
 31
0.0
 12
151.6590483666
 22
181.4530126265
 32
0.0
 13
151.6590483666
 23
181.4530126265
 33
0.0
  0
LINE
  5
105
330
100
100
AcDbEntity
  8
0
  6
Continuous
 62
     7
370
     0
100
AcDbLine
 10
145.3570483666
 20
162.3379843738
 30
0.0
 11
145.3570483666
 21
181.9450126265
 31
0.0
  0
LINE
  5
106
330
100
100
AcDbEntity
  8
0
  6
Continuous
 62
     7
370
     0
100
AcDbLine
 10
145.3570483666
 20
180.9450126265
 30
0.0
 11
129.0615328604
 21
180.9450126265
 31
0.0
  0
LINE
  5
107
330
100
100
AcDbEntity
  8
0
  6
Continuous
 62
     7
370
     0
100
AcDbLine
 10
145.3570483666
 20
180.9450126265
 30
0.0
 11
148.3570483666
 21
180.9450126265
 31
0.0
  0
LINE
  5
108
330
100
100
AcDbEntity
  8
0
  6
Continuous
 62
     7
370
     0
100
AcDbLine
 10
148.3570483666
 20
180.9450126265
 30
0.0
 11
154.7070483666
 21
180.9450126265
 31
0.0
  0
MTEXT
  5
109
330
100
100
AcDbEntity
  8
0
  6
Continuous
 62
     7
370
    18
100
AcDbMText
 10
129.0615328604
 20
185.4567495411
 30
0.0
 40
3.5
 41
0.0
 71
     1
 72
     1
  1
3.00
  7
SLDTEXTSTYLE0
 73
     1
 44
1.0
  0
ENDBLK
  5
102
330
100
100
AcDbEntity
  8
0
100
AcDbBlockEnd
  0
BLOCK
  5
10C
330
10B
100
AcDbEntity
  8
0
100
AcDbBlockBegin
  2
_D_7
 70
     0
 10
0.0
 20
0.0
 30
0.0
  3
_D_7
  1

  0
SOLID
  5
10E
330
10B
100
AcDbEntity
  8
0
  6
Continuous
 62
     7
370
    18
100
AcDbTrace
 10
148.3570483666
 20
188.7186072371
 30
0.0
 11
145.0550483666
 21
189.2266072371
 31
0.0
 12
145.0550483666
 22
188.2106072371
 32
0.0
 13
145.0550483666
 23
188.2106072371
 33
0.0
  0
SOLID
  5
10F
330
10B
100
AcDbEntity
  8
0
  6
Continuous
 62
     7
370
    18
100
AcDbTrace
 10
150.3570483666
 20
188.7186072371
 30
0.0
 11
153.6590483666
 21
188.2106072371
 31
0.0
 12
153.6590483666
 22
189.2266072371
 32
0.0
 13
153.6590483666
 23
189.2266072371
 33
0.0
  0
LINE
  5
110
330
10B
100
AcDbEntity
  8
0
  6
Continuous
 62
     7
370
     0
100
AcDbLine
 10
148.3570483666
 20
183.5879843738
 30
0.0
 11
148.3570483666
 21
189.7186072371
 31
0.0
  0
LINE
  5
111
330
10B
100
AcDbEntity
  8
0
  6
Continuous
 62
     7
370
     0
100
AcDbLine
 10
150.3570483666
 20
183.5879843738
 30
0.0
 11
150.3570483666
 21
189.7186072371
 31
0.0
  0
LINE
  5
112
330
10B
100
AcDbEntity
  8
0
  6
Continuous
 62
     7
370
     0
100
AcDbLine
 10
148.3570483666
 20
188.7186072371
 30
0.0
 11
142.0070483666
 21
188.7186072371
 31
0.0
  0
LINE
  5
113
330
10B
100
AcDbEntity
  8
0
  6
Continuous
 62
     7
370
     0
100
AcDbLine
 10
148.3570483666
 20
188.7186072371
 30
0.0
 11
150.3570483666
 21
188.7186072371
 31
0.0
  0
LINE
  5
114
330
10B
100
AcDbEntity
  8
0
  6
Continuous
 62
     7
370
     0
100
AcDbLine
 10
150.3570483666
 20
188.7186072371
 30
0.0
 11
155.3529382865
 21
188.7186072371
 31
0.0
  0
MTEXT
  5
115
330
10B
100
AcDbEntity
  8
0
  6
Continuous
 62
     7
370
    18
100
AcDbMText
 10
146.3015492255
 20
193.2303441516
 30
0.0
 40
3.5
 41
0.0
 71
     1
 72
     1
  1
2.00
  7
SLDTEXTSTYLE0
 73
     1
 44
1.0
  0
ENDBLK
  5
10D
330
10B
100
AcDbEntity
  8
0
100
AcDbBlockEnd
  0
BLOCK
  5
118
330
117
100
AcDbEntity
  8
0
100
AcDbBlockBegin
  2
_D_8
 70
     0
 10
0.0
 20
0.0
 30
0.0
  3
_D_8
  1

  0
SOLID
  5
11A
330
117
100
AcDbEntity
  8
0
  6
Continuous
 62
     7
370
    18
100
AcDbTrace
 10
155.3570483666
 20
180.9450126265
 30
0.0
 11
158.6590483666
 21
180.4370126265
 31
0.0
 12
158.6590483666
 22
181.4530126265
 32
0.0
 13
158.6590483666
 23
181.4530126265
 33
0.0
  0
SOLID
  5
11B
330
117
100
AcDbEntity
  8
0
  6
Continuous
 62
     7
370
    18
100
AcDbTrace
 10
150.3570483666
 20
180.9450126265
 30
0.0
 11
147.0550483666
 21
181.4530126265
 31
0.0
 12
147.0550483666
 22
180.4370126265
 32
0.0
 13
147.0550483666
 23
180.4370126265
 33
0.0
  0
LINE
  5
11C
330
117
100
AcDbEntity
  8
0
  6
Continuous
 62
     7
370
     0
100
AcDbLine
 10
155.3570483666
 20
155.1879843738
 30
0.0
 11
155.3570483666
 21
181.9450126265
 31
0.0
  0
LINE
  5
11D
330
117
100
AcDbEntity
  8
0
  6
Continuous
 62
     7
370
     0
100
AcDbLine
 10
150.3570483666
 20
155.1879843738
 30
0.0
 11
150.3570483666
 21
181.9450126265
 31
0.0
  0
LINE
  5
11E
330
117
100
AcDbEntity
  8
0
  6
Continuous
 62
     7
370
     0
100
AcDbLine
 10
155.3570483666
 20
180.9450126265
 30
0.0
 11
165.2652544796
 21
180.9450126265
 31
0.0
  0
LINE
  5
11F
330
117
100
AcDbEntity
  8
0
  6
Continuous
 62
     7
370
     0
100
AcDbLine
 10
155.3570483666
 20
180.9450126265
 30
0.0
 11
150.3570483666
 21
180.9450126265
 31
0.0
  0
LINE
  5
120
330
117
100
AcDbEntity
  8
0
  6
Continuous
 62
     7
370
     0
100
AcDbLine
 10
150.3570483666
 20
180.9450126265
 30
0.0
 11
144.0070483666
 21
180.9450126265
 31
0.0
  0
MTEXT
  5
121
330
117
100
AcDbEntity
  8
0
  6
Continuous
 62
     7
370
    18
100
AcDbMText
 10
156.2138654187
 20
185.4567495411
 30
0.0
 40
3.5
 41
0.0
 71
     1
 72
     1
  1
5.00
  7
SLDTEXTSTYLE0
 73
     1
 44
1.0
  0
ENDBLK
  5
119
330
117
100
AcDbEntity
  8
0
100
AcDbBlockEnd
  0
BLOCK
  5
124
330
123
100
AcDbEntity
  8
0
100
AcDbBlockBegin
  2
_D_9
 70
     0
 10
0.0
 20
0.0
 30
0.0
  3
_D_9
  1

  0
SOLID
  5
126
330
123
100
AcDbEntity
  8
0
  6
Continuous
 62
     7
370
    18
100
AcDbTrace
 10
167.3570483666
 20
163.0833067375
 30
0.0
 11
170.6590483666
 21
162.5753067375
 31
0.0
 12
170.6590483666
 22
163.5913067375
 32
0.0
 13
170.6590483666
 23
163.5913067375
 33
0.0
  0
SOLID
  5
127
330
123
100
AcDbEntity
  8
0
  6
Continuous
 62
     7
370
    18
100
AcDbTrace
 10
155.3570483666
 20
163.0833067375
 30
0.0
 11
152.0550483666
 21
163.5913067375
 31
0.0
 12
152.0550483666
 22
162.5753067375
 32
0.0
 13
152.0550483666
 23
162.5753067375
 33
0.0
  0
LINE
  5
128
330
123
100
AcDbEntity
  8
0
  6
Continuous
 62
     7
370
     0
100
AcDbLine
 10
167.3570483666
 20
153.3379843738
 30
0.0
 11
167.3570483666
 21
164.0833067375
 31
0.0
  0
LINE
  5
129
330
123
100
AcDbEntity
  8
0
  6
Continuous
 62
     7
370
     0
100
AcDbLine
 10
155.3570483666
 20
153.3379843738
 30
0.0
 11
155.3570483666
 21
164.0833067375
 31
0.0
  0
LINE
  5
12A
330
123
100
AcDbEntity
  8
0
  6
Continuous
 62
     7
370
     0
100
AcDbLine
 10
167.3570483666
 20
163.0833067375
 30
0.0
 11
173.7070483666
 21
163.0833067375
 31
0.0
  0
LINE
  5
12B
330
123
100
AcDbEntity
  8
0
  6
Continuous
 62
     7
370
     0
100
AcDbLine
 10
167.3570483666
 20
163.0833067375
 30
0.0
 11
155.3570483666
 21
163.0833067375
 31
0.0
  0
LINE
  5
12C
330
123
100
AcDbEntity
  8
0
  6
Continuous
 62
     7
370
     0
100
AcDbLine
 10
155.3570483666
 20
163.0833067375
 30
0.0
 11
149.0070483666
 21
163.0833067375
 31
0.0
  0
MTEXT
  5
12D
330
123
100
AcDbEntity
  8
0
  6
Continuous
 62
     7
370
    18
100
AcDbMText
 10
154.7499077022
 20
167.5950436521
 30
0.0
 40
3.5
 41
0.0
 71
     1
 72
     1
  1
12.00
  7
SLDTEXTSTYLE0
 73
     1
 44
1.0
  0
ENDBLK
  5
125
330
123
100
AcDbEntity
  8
0
100
AcDbBlockEnd
  0
BLOCK
  5
150
330
14F
100
AcDbEntity
  8
0
100
AcDbBlockBegin
  2
_None
 70
     0
 10
0.0
 20
0.0
 30
0.0
  3
_None
  1

  0
ENDBLK
  5
151
330
14F
100
AcDbEntity
  8
0
100
AcDbBlockEnd
  0
BLOCK
  5
153
330
152
100
AcDbEntity
  8
0
100
AcDbBlockBegin
  2
_D_10
 70
     0
 10
0.0
 20
0.0
 30
0.0
  3
_D_10
  1

  0
SOLID
  5
155
330
152
100
AcDbEntity
  8
0
  6
Continuous
 62
     7
370
    18
100
AcDbTrace
 10
247.2839099569
 20
168.4453003591
 30
0.0
 11
249.9779867932
 21
170.4209567057
 31
0.0
 12
249.2595663035
 22
171.1393771954
 32
0.0
 13
249.2595663035
 23
171.1393771954
 33
0.0
  0
LINE
  5
156
330
152
100
AcDbEntity
  8
0
  6
Continuous
 62
     7
370
     0
100
AcDbLine
 10
247.2839099569
 20
168.4453003591
 30
0.0
 11
260.9604387011
 21
182.1218291032
 31
0.0
  0
LINE
  5
157
330
152
100
AcDbEntity
  8
0
  6
Continuous
 62
     7
370
     0
100
AcDbLine
 10
247.2839099569
 20
168.4453003591
 30
0.0
 11
198.0692779863
 21
119.2306683885
 31
0.0
  0
MTEXT
  5
158
330
152
100
AcDbEntity
  8
0
  6
Continuous
 62
     7
370
    18
100
AcDbMText
 10
245.8124982344
 20
173.3470207918
 30
0.0
 40
3.5
 41
0.0
 71
     1
 72
     1
  1
%%c
  7
SLDTEXTSTYLE0
 11
0.707106781186546
 21
0.7071067811865491
 31
0.0
 73
     1
 44
1.0
  0
MTEXT
  5
159
330
152
100
AcDbEntity
  8
0
  6
Continuous
 62
     7
370
    18
100
AcDbMText
 10
249.5071065741
 20
177.117250209
 30
0.0
 40
3.5
 41
0.0
 71
     1
 72
     1
  1
69.60
  7
SLDTEXTSTYLE0
 11
0.707106781186546
 21
0.7071067811865491
 31
0.0
 73
     1
 44
1.0
  0
ENDBLK
  5
154
330
152
100
AcDbEntity
  8
0
100
AcDbBlockEnd
  0
BLOCK
  5
15C
330
15B
100
AcDbEntity
  8
0
100
AcDbBlockBegin
  2
_D_11
 70
     0
 10
0.0
 20
0.0
 30
0.0
  3
_D_11
  1

  0
SOLID
  5
15E
330
15B
100
AcDbEntity
  8
0
  6
Continuous
 62
     7
370
    18
100
AcDbTrace
 10
271.4265939716
 20
182.5879843738
 30
0.0
 11
270.9185939716
 21
179.2859843738
 31
0.0
 12
271.9345939716
 22
179.2859843738
 32
0.0
 13
271.9345939716
 23
179.2859843738
 33
0.0
  0
SOLID
  5
15F
330
15B
100
AcDbEntity
  8
0
  6
Continuous
 62
     7
370
    18
100
AcDbTrace
 10
271.4265939716
 20
105.0879843738
 30
0.0
 11
271.9345939716
 21
108.3899843738
 31
0.0
 12
270.9185939716
 22
108.3899843738
 32
0.0
 13
270.9185939716
 23
108.3899843738
 33
0.0
  0
LINE
  5
160
330
15B
100
AcDbEntity
  8
0
  6
Continuous
 62
     7
370
     0
100
AcDbLine
 10
223.6765939716
 20
182.5879843738
 30
0.0
 11
272.4265939716
 21
182.5879843738
 31
0.0
  0
LINE
  5
161
330
15B
100
AcDbEntity
  8
0
  6
Continuous
 62
     7
370
     0
100
AcDbLine
 10
223.6765939716
 20
105.0879843738
 30
0.0
 11
272.4265939716
 21
105.0879843738
 31
0.0
  0
LINE
  5
162
330
15B
100
AcDbEntity
  8
0
  6
Continuous
 62
     7
370
     0
100
AcDbLine
 10
271.4265939716
 20
182.5879843738
 30
0.0
 11
271.4265939716
 21
105.0879843738
 31
0.0
  0
MTEXT
  5
163
330
15B
100
AcDbEntity
  8
0
  6
Continuous
 62
     7
370
    18
100
AcDbMText
 10
266.9148568824
 20
133.3469436361
 30
0.0
 40
3.5
 41
0.0
 71
     1
 72
     1
  1
%%c
  7
SLDTEXTSTYLE0
 11
-7.044195017643634E-15
 21
1.0
 31
0.0
 73
     1
 44
1.0
  0
MTEXT
  5
164
330
15B
100
AcDbEntity
  8
0
  6
Continuous
 62
     7
370
    18
100
AcDbMText
 10
266.8613847057
 20
138.6253810345
 30
0.0
 40
3.5
 41
0.0
 71
     1
 72
     1
  1
77.50
  7
SLDTEXTSTYLE0
 11
-7.044195017643634E-15
 21
1.0
 31
0.0
 73
     1
 44
1.0
  0
ENDBLK
  5
15D
330
15B
100
AcDbEntity
  8
0
100
AcDbBlockEnd
  0
BLOCK
  5
167
330
166
100
AcDbEntity
  8
0
100
AcDbBlockBegin
  2
_D_12
 70
     0
 10
0.0
 20
0.0
 30
0.0
  3
_D_12
  1

  0
SOLID
  5
169
330
166
100
AcDbEntity
  8
0
  6
Continuous
 62
     7
370
    18
100
AcDbTrace
 10
224.0214452999
 20
142.7980925982
 30
0.0
 11
226.3228771022
 21
140.376382529
 31
0.0
 12
226.9443653633
 22
141.1801289699
 32
0.0
 13
226.9443653633
 23
141.1801289699
 33
0.0
  0
LINE
  5
16A
330
166
100
AcDbEntity
  8
0
  6
Continuous
 62
     7
370
     0
100
AcDbLine
 10
224.0214452999
 20
142.7980925982
 30
0.0
 11
242.7509526446
 21
128.3157031784
 31
0.0
  0
LINE
  5
16B
330
166
100
AcDbEntity
  8
0
  6
Continuous
 62
     7
370
     0
100
AcDbLine
 10
224.0214452999
 20
142.7980925982
 30
0.0
 11
221.3317426433
 21
144.8778761493
 31
0.0
  0
MTEXT
  5
16C
330
166
100
AcDbEntity
  8
0
  6
Continuous
 62
     7
370
    18
100
AcDbMText
 10
234.1550671247
 20
140.6251749965
 30
0.0
 40
3.5
 41
0.0
 71
     1
 72
     1
  1
%%c
  7
SLDTEXTSTYLE0
 11
0.7910890166304611
 21
-0.6117010444380899
 31
0.0
 73
     1
 44
1.0
  0
MTEXT
  5
16D
330
166
100
AcDbEntity
  8
0
  6
Continuous
 62
     7
370
    18
100
AcDbMText
 10
238.3634899619
 20
137.4386505786
 30
0.0
 40
3.5
 41
0.0
 71
     1
 72
     1
  1
3.40
  7
SLDTEXTSTYLE0
 11
0.7910890166304611
 21
-0.6117010444380899
 31
0.0
 73
     1
 44
1.0
  0
ENDBLK
  5
168
330
166
100
AcDbEntity
  8
0
100
AcDbBlockEnd
  0
BLOCK
  5
16F
330
16E
100
AcDbEntity
  8
0
100
AcDbBlockBegin
  2
SW_CENTERMARKSYMBOL_0
 70
     0
 10
0.0
 20
0.0
 30
0.0
  3
SW_CENTERMARKSYMBOL_0
  1

  0
LINE
  5
171
330
16E
100
AcDbEntity
  8
0
  6
Continuous
 62
     0
370
    18
100
AcDbLine
 10
0.0
 20
0.0
 30
0.0
 11
0.0
 21
2.5
 31
0.0
  0
LINE
  5
172
330
16E
100
AcDbEntity
  8
0
  6
Continuous
 62
     0
370
    18
100
AcDbLine
 10
0.0
 20
0.0
 30
0.0
 11
-2.5
 21
0.0
 31
0.0
  0
LINE
  5
173
330
16E
100
AcDbEntity
  8
0
  6
Continuous
 62
     0
370
    18
100
AcDbLine
 10
0.0
 20
0.0
 30
0.0
 11
0.0
 21
-2.5
 31
0.0
  0
LINE
  5
174
330
16E
100
AcDbEntity
  8
0
  6
Continuous
 62
     0
370
    18
100
AcDbLine
 10
0.0
 20
0.0
 30
0.0
 11
2.5
 21
0.0
 31
0.0
  0
LINE
  5
175
330
16E
100
AcDbEntity
  8
0
  6
Continuous
 62
     0
370
    18
100
AcDbLine
 10
0.0
 20
5.0
 30
0.0
 11
0.0
 21
41.25
 31
0.0
  0
LINE
  5
176
330
16E
100
AcDbEntity
  8
0
  6
Continuous
 62
     0
370
    18
100
AcDbLine
 10
-5.0
 20
0.0
 30
0.0
 11
-41.25
 21
0.0
 31
0.0
  0
LINE
  5
177
330
16E
100
AcDbEntity
  8
0
  6
Continuous
 62
     0
370
    18
100
AcDbLine
 10
0.0
 20
-5.0
 30
0.0
 11
0.0
 21
-41.25
 31
0.0
  0
LINE
  5
178
330
16E
100
AcDbEntity
  8
0
  6
Continuous
 62
     0
370
    18
100
AcDbLine
 10
5.0
 20
0.0
 30
0.0
 11
41.25
 21
0.0
 31
0.0
  0
ENDBLK
  5
170
330
16E
100
AcDbEntity
  8
0
100
AcDbBlockEnd
  0
BLOCK
  5
17B
330
17A
100
AcDbEntity
  8
0
100
AcDbBlockBegin
  2
SW_CENTERMARKSYMBOL_1
 70
     0
 10
0.0
 20
0.0
 30
0.0
  3
SW_CENTERMARKSYMBOL_1
  1

  0
LINE
  5
17D
330
17A
100
AcDbEntity
  8
0
  6
Continuous
 62
     0
370
    18
100
AcDbLine
 10
0.0
 20
0.0
 30
0.0
 11
0.0
 21
2.5
 31
0.0
  0
LINE
  5
17E
330
17A
100
AcDbEntity
  8
0
  6
Continuous
 62
     0
370
    18
100
AcDbLine
 10
0.0
 20
0.0
 30
0.0
 11
-2.5
 21
0.0
 31
0.0
  0
LINE
  5
17F
330
17A
100
AcDbEntity
  8
0
  6
Continuous
 62
     0
370
    18
100
AcDbLine
 10
0.0
 20
0.0
 30
0.0
 11
0.0
 21
-2.5
 31
0.0
  0
LINE
  5
180
330
17A
100
AcDbEntity
  8
0
  6
Continuous
 62
     0
370
    18
100
AcDbLine
 10
0.0
 20
0.0
 30
0.0
 11
2.5
 21
0.0
 31
0.0
  0
LINE
  5
181
330
17A
100
AcDbEntity
  8
0
  6
Continuous
 62
     0
370
    18
100
AcDbLine
 10
0.0
 20
5.0
 30
0.0
 11
0.0
 21
5.2
 31
0.0
  0
LINE
  5
182
330
17A
100
AcDbEntity
  8
0
  6
Continuous
 62
     0
370
    18
100
AcDbLine
 10
-5.0
 20
0.0
 30
0.0
 11
-5.2
 21
0.0
 31
0.0
  0
LINE
  5
183
330
17A
100
AcDbEntity
  8
0
  6
Continuous
 62
     0
370
    18
100
AcDbLine
 10
0.0
 20
-5.0
 30
0.0
 11
0.0
 21
-5.2
 31
0.0
  0
LINE
  5
184
330
17A
100
AcDbEntity
  8
0
  6
Continuous
 62
     0
370
    18
100
AcDbLine
 10
5.0
 20
0.0
 30
0.0
 11
5.2
 21
0.0
 31
0.0
  0
ENDBLK
  5
17C
330
17A
100
AcDbEntity
  8
0
100
AcDbBlockEnd
  0
BLOCK
  5
187
330
186
100
AcDbEntity
  8
0
100
AcDbBlockBegin
  2
SW_CENTERMARKSYMBOL_2
 70
     0
 10
0.0
 20
0.0
 30
0.0
  3
SW_CENTERMARKSYMBOL_2
  1

  0
LINE
  5
189
330
186
100
AcDbEntity
  8
0
  6
Continuous
 62
     0
370
    18
100
AcDbLine
 10
0.0
 20
0.0
 30
0.0
 11
0.0
 21
2.5
 31
0.0
  0
LINE
  5
18A
330
186
100
AcDbEntity
  8
0
  6
Continuous
 62
     0
370
    18
100
AcDbLine
 10
0.0
 20
0.0
 30
0.0
 11
-2.5
 21
0.0
 31
0.0
  0
LINE
  5
18B
330
186
100
AcDbEntity
  8
0
  6
Continuous
 62
     0
370
    18
100
AcDbLine
 10
0.0
 20
0.0
 30
0.0
 11
0.0
 21
-2.5
 31
0.0
  0
LINE
  5
18C
330
186
100
AcDbEntity
  8
0
  6
Continuous
 62
     0
370
    18
100
AcDbLine
 10
0.0
 20
0.0
 30
0.0
 11
2.5
 21
0.0
 31
0.0
  0
LINE
  5
18D
330
186
100
AcDbEntity
  8
0
  6
Continuous
 62
     0
370
    18
100
AcDbLine
 10
0.0
 20
5.0
 30
0.0
 11
0.0
 21
5.2
 31
0.0
  0
LINE
  5
18E
330
186
100
AcDbEntity
  8
0
  6
Continuous
 62
     0
370
    18
100
AcDbLine
 10
-5.0
 20
0.0
 30
0.0
 11
-5.2
 21
0.0
 31
0.0
  0
LINE
  5
18F
330
186
100
AcDbEntity
  8
0
  6
Continuous
 62
     0
370
    18
100
AcDbLine
 10
0.0
 20
-5.0
 30
0.0
 11
0.0
 21
-5.2
 31
0.0
  0
LINE
  5
190
330
186
100
AcDbEntity
  8
0
  6
Continuous
 62
     0
370
    18
100
AcDbLine
 10
5.0
 20
0.0
 30
0.0
 11
5.2
 21
0.0
 31
0.0
  0
ENDBLK
  5
188
330
186
100
AcDbEntity
  8
0
100
AcDbBlockEnd
  0
BLOCK
  5
193
330
192
100
AcDbEntity
  8
0
100
AcDbBlockBegin
  2
SW_CENTERMARKSYMBOL_3
 70
     0
 10
0.0
 20
0.0
 30
0.0
  3
SW_CENTERMARKSYMBOL_3
  1

  0
LINE
  5
195
330
192
100
AcDbEntity
  8
0
  6
Continuous
 62
     0
370
    18
100
AcDbLine
 10
0.0
 20
0.0
 30
0.0
 11
0.0
 21
2.5
 31
0.0
  0
LINE
  5
196
330
192
100
AcDbEntity
  8
0
  6
Continuous
 62
     0
370
    18
100
AcDbLine
 10
0.0
 20
0.0
 30
0.0
 11
-2.5
 21
0.0
 31
0.0
  0
LINE
  5
197
330
192
100
AcDbEntity
  8
0
  6
Continuous
 62
     0
370
    18
100
AcDbLine
 10
0.0
 20
0.0
 30
0.0
 11
0.0
 21
-2.5
 31
0.0
  0
LINE
  5
198
330
192
100
AcDbEntity
  8
0
  6
Continuous
 62
     0
370
    18
100
AcDbLine
 10
0.0
 20
0.0
 30
0.0
 11
2.5
 21
0.0
 31
0.0
  0
LINE
  5
199
330
192
100
AcDbEntity
  8
0
  6
Continuous
 62
     0
370
    18
100
AcDbLine
 10
0.0
 20
5.0
 30
0.0
 11
0.0
 21
5.2
 31
0.0
  0
LINE
  5
19A
330
192
100
AcDbEntity
  8
0
  6
Continuous
 62
     0
370
    18
100
AcDbLine
 10
-5.0
 20
0.0
 30
0.0
 11
-5.2
 21
0.0
 31
0.0
  0
LINE
  5
19B
330
192
100
AcDbEntity
  8
0
  6
Continuous
 62
     0
370
    18
100
AcDbLine
 10
0.0
 20
-5.0
 30
0.0
 11
0.0
 21
-5.2
 31
0.0
  0
LINE
  5
19C
330
192
100
AcDbEntity
  8
0
  6
Continuous
 62
     0
370
    18
100
AcDbLine
 10
5.0
 20
0.0
 30
0.0
 11
5.2
 21
0.0
 31
0.0
  0
ENDBLK
  5
194
330
192
100
AcDbEntity
  8
0
100
AcDbBlockEnd
  0
BLOCK
  5
19F
330
19E
100
AcDbEntity
  8
0
100
AcDbBlockBegin
  2
SW_CENTERMARKSYMBOL_4
 70
     0
 10
0.0
 20
0.0
 30
0.0
  3
SW_CENTERMARKSYMBOL_4
  1

  0
LINE
  5
1A1
330
19E
100
AcDbEntity
  8
0
  6
Continuous
 62
     0
370
    18
100
AcDbLine
 10
0.0
 20
0.0
 30
0.0
 11
0.0
 21
2.5
 31
0.0
  0
LINE
  5
1A2
330
19E
100
AcDbEntity
  8
0
  6
Continuous
 62
     0
370
    18
100
AcDbLine
 10
0.0
 20
0.0
 30
0.0
 11
-2.5
 21
0.0
 31
0.0
  0
LINE
  5
1A3
330
19E
100
AcDbEntity
  8
0
  6
Continuous
 62
     0
370
    18
100
AcDbLine
 10
0.0
 20
0.0
 30
0.0
 11
0.0
 21
-2.5
 31
0.0
  0
LINE
  5
1A4
330
19E
100
AcDbEntity
  8
0
  6
Continuous
 62
     0
370
    18
100
AcDbLine
 10
0.0
 20
0.0
 30
0.0
 11
2.5
 21
0.0
 31
0.0
  0
LINE
  5
1A5
330
19E
100
AcDbEntity
  8
0
  6
Continuous
 62
     0
370
    18
100
AcDbLine
 10
0.0
 20
5.0
 30
0.0
 11
0.0
 21
5.2
 31
0.0
  0
LINE
  5
1A6
330
19E
100
AcDbEntity
  8
0
  6
Continuous
 62
     0
370
    18
100
AcDbLine
 10
-5.0
 20
0.0
 30
0.0
 11
-5.2
 21
0.0
 31
0.0
  0
LINE
  5
1A7
330
19E
100
AcDbEntity
  8
0
  6
Continuous
 62
     0
370
    18
100
AcDbLine
 10
0.0
 20
-5.0
 30
0.0
 11
0.0
 21
-5.2
 31
0.0
  0
LINE
  5
1A8
330
19E
100
AcDbEntity
  8
0
  6
Continuous
 62
     0
370
    18
100
AcDbLine
 10
5.0
 20
0.0
 30
0.0
 11
5.2
 21
0.0
 31
0.0
  0
ENDBLK
  5
1A0
330
19E
100
AcDbEntity
  8
0
100
AcDbBlockEnd
  0
BLOCK
  5
1AB
330
1AA
100
AcDbEntity
  8
0
100
AcDbBlockBegin
  2
SW_CENTERMARKSYMBOL_5
 70
     0
 10
0.0
 20
0.0
 30
0.0
  3
SW_CENTERMARKSYMBOL_5
  1

  0
LINE
  5
1AD
330
1AA
100
AcDbEntity
  8
0
  6
Continuous
 62
     0
370
    18
100
AcDbLine
 10
0.0
 20
0.0
 30
0.0
 11
0.0
 21
2.5
 31
0.0
  0
LINE
  5
1AE
330
1AA
100
AcDbEntity
  8
0
  6
Continuous
 62
     0
370
    18
100
AcDbLine
 10
0.0
 20
0.0
 30
0.0
 11
-2.5
 21
0.0
 31
0.0
  0
LINE
  5
1AF
330
1AA
100
AcDbEntity
  8
0
  6
Continuous
 62
     0
370
    18
100
AcDbLine
 10
0.0
 20
0.0
 30
0.0
 11
0.0
 21
-2.5
 31
0.0
  0
LINE
  5
1B0
330
1AA
100
AcDbEntity
  8
0
  6
Continuous
 62
     0
370
    18
100
AcDbLine
 10
0.0
 20
0.0
 30
0.0
 11
2.5
 21
0.0
 31
0.0
  0
LINE
  5
1B1
330
1AA
100
AcDbEntity
  8
0
  6
Continuous
 62
     0
370
    18
100
AcDbLine
 10
0.0
 20
5.0
 30
0.0
 11
0.0
 21
5.2
 31
0.0
  0
LINE
  5
1B2
330
1AA
100
AcDbEntity
  8
0
  6
Continuous
 62
     0
370
    18
100
AcDbLine
 10
-5.0
 20
0.0
 30
0.0
 11
-5.2
 21
0.0
 31
0.0
  0
LINE
  5
1B3
330
1AA
100
AcDbEntity
  8
0
  6
Continuous
 62
     0
370
    18
100
AcDbLine
 10
0.0
 20
-5.0
 30
0.0
 11
0.0
 21
-5.2
 31
0.0
  0
LINE
  5
1B4
330
1AA
100
AcDbEntity
  8
0
  6
Continuous
 62
     0
370
    18
100
AcDbLine
 10
5.0
 20
0.0
 30
0.0
 11
5.2
 21
0.0
 31
0.0
  0
ENDBLK
  5
1AC
330
1AA
100
AcDbEntity
  8
0
100
AcDbBlockEnd
  0
BLOCK
  5
1B7
330
1B6
100
AcDbEntity
  8
0
100
AcDbBlockBegin
  2
SW_CENTERMARKSYMBOL_6
 70
     0
 10
0.0
 20
0.0
 30
0.0
  3
SW_CENTERMARKSYMBOL_6
  1

  0
LINE
  5
1B9
330
1B6
100
AcDbEntity
  8
0
  6
Continuous
 62
     0
370
    18
100
AcDbLine
 10
0.0
 20
0.0
 30
0.0
 11
0.0
 21
2.5
 31
0.0
  0
LINE
  5
1BA
330
1B6
100
AcDbEntity
  8
0
  6
Continuous
 62
     0
370
    18
100
AcDbLine
 10
0.0
 20
0.0
 30
0.0
 11
-2.5
 21
0.0
 31
0.0
  0
LINE
  5
1BB
330
1B6
100
AcDbEntity
  8
0
  6
Continuous
 62
     0
370
    18
100
AcDbLine
 10
0.0
 20
0.0
 30
0.0
 11
0.0
 21
-2.5
 31
0.0
  0
LINE
  5
1BC
330
1B6
100
AcDbEntity
  8
0
  6
Continuous
 62
     0
370
    18
100
AcDbLine
 10
0.0
 20
0.0
 30
0.0
 11
2.5
 21
0.0
 31
0.0
  0
LINE
  5
1BD
330
1B6
100
AcDbEntity
  8
0
  6
Continuous
 62
     0
370
    18
100
AcDbLine
 10
0.0
 20
5.0
 30
0.0
 11
0.0
 21
5.2
 31
0.0
  0
LINE
  5
1BE
330
1B6
100
AcDbEntity
  8
0
  6
Continuous
 62
     0
370
    18
100
AcDbLine
 10
-5.0
 20
0.0
 30
0.0
 11
-5.2
 21
0.0
 31
0.0
  0
LINE
  5
1BF
330
1B6
100
AcDbEntity
  8
0
  6
Continuous
 62
     0
370
    18
100
AcDbLine
 10
0.0
 20
-5.0
 30
0.0
 11
0.0
 21
-5.2
 31
0.0
  0
LINE
  5
1C0
330
1B6
100
AcDbEntity
  8
0
  6
Continuous
 62
     0
370
    18
100
AcDbLine
 10
5.0
 20
0.0
 30
0.0
 11
5.2
 21
0.0
 31
0.0
  0
ENDBLK
  5
1B8
330
1B6
100
AcDbEntity
  8
0
100
AcDbBlockEnd
  0
BLOCK
  5
1EC
330
1EB
100
AcDbEntity
  8
0
100
AcDbBlockBegin
  2
_D_13
 70
     0
 10
0.0
 20
0.0
 30
0.0
  3
_D_13
  1

  0
SOLID
  5
1EE
330
1EB
100
AcDbEntity
  8
0
  6
Continuous
 62
     7
370
    18
100
AcDbTrace
 10
126.1570483666
 20
64.259789555
 30
0.0
 11
122.8550483666
 21
64.767789555
 31
0.0
 12
122.8550483666
 22
63.751789555
 32
0.0
 13
122.8550483666
 23
63.751789555
 33
0.0
  0
SOLID
  5
1EF
330
1EB
100
AcDbEntity
  8
0
  6
Continuous
 62
     7
370
    18
100
AcDbTrace
 10
138.1570483666
 20
64.259789555
 30
0.0
 11
141.4590483666
 21
63.751789555
 31
0.0
 12
141.4590483666
 22
64.767789555
 32
0.0
 13
141.4590483666
 23
64.767789555
 33
0.0
  0
LINE
  5
1F0
330
1EB
100
AcDbEntity
  8
0
  6
Continuous
 62
     7
370
     0
100
AcDbLine
 10
126.1570483666
 20
58.3557609417
 30
0.0
 11
126.1570483666
 21
65.259789555
 31
0.0
  0
LINE
  5
1F1
330
1EB
100
AcDbEntity
  8
0
  6
Continuous
 62
     7
370
     0
100
AcDbLine
 10
138.1570483666
 20
64.4557609417
 30
0.0
 11
138.1570483666
 21
65.259789555
 31
0.0
  0
LINE
  5
1F2
330
1EB
100
AcDbEntity
  8
0
  6
Continuous
 62
     7
370
     0
100
AcDbLine
 10
126.1570483666
 20
64.259789555
 30
0.0
 11
119.8070483666
 21
64.259789555
 31
0.0
  0
LINE
  5
1F3
330
1EB
100
AcDbEntity
  8
0
  6
Continuous
 62
     7
370
     0
100
AcDbLine
 10
126.1570483666
 20
64.259789555
 30
0.0
 11
138.1570483666
 21
64.259789555
 31
0.0
  0
LINE
  5
1F4
330
1EB
100
AcDbEntity
  8
0
  6
Continuous
 62
     7
370
     0
100
AcDbLine
 10
138.1570483666
 20
64.259789555
 30
0.0
 11
144.5070483666
 21
64.259789555
 31
0.0
  0
MTEXT
  5
1F5
330
1EB
100
AcDbEntity
  8
0
  6
Continuous
 62
     7
370
    18
100
AcDbMText
 10
127.4053093819
 20
68.7715264696
 30
0.0
 40
3.5
 41
0.0
 71
     1
 72
     1
  1
12.00
  7
SLDTEXTSTYLE0
 73
     1
 44
1.0
  0
ENDBLK
  5
1ED
330
1EB
100
AcDbEntity
  8
0
100
AcDbBlockEnd
  0
BLOCK
  5
1F8
330
1F7
100
AcDbEntity
  8
0
100
AcDbBlockBegin
  2
_D_14
 70
     0
 10
0.0
 20
0.0
 30
0.0
  3
_D_14
  1

  0
SOLID
  5
1FA
330
1F7
100
AcDbEntity
  8
0
  6
Continuous
 62
     7
370
    18
100
AcDbTrace
 10
113.6806363764
 20
58.4557609417
 30
0.0
 11
114.1886363764
 21
61.7577609417
 31
0.0
 12
113.1726363764
 22
61.7577609417
 32
0.0
 13
113.1726363764
 23
61.7577609417
 33
0.0
  0
SOLID
  5
1FB
330
1F7
100
AcDbEntity
  8
0
  6
Continuous
 62
     7
370
    18
100
AcDbTrace
 10
113.6806363764
 20
52.3557609417
 30
0.0
 11
113.1726363764
 21
49.0537609417
 31
0.0
 12
114.1886363764
 22
49.0537609417
 32
0.0
 13
114.1886363764
 23
49.0537609417
 33
0.0
  0
LINE
  5
1FC
330
1F7
100
AcDbEntity
  8
0
  6
Continuous
 62
     7
370
     0
100
AcDbLine
 10
132.1570483666
 20
58.4557609417
 30
0.0
 11
112.6806363764
 21
58.4557609417
 31
0.0
  0
LINE
  5
1FD
330
1F7
100
AcDbEntity
  8
0
  6
Continuous
 62
     7
370
     0
100
AcDbLine
 10
120.1570483666
 20
52.3557609417
 30
0.0
 11
112.6806363764
 21
52.3557609417
 31
0.0
  0
LINE
  5
1FE
330
1F7
100
AcDbEntity
  8
0
  6
Continuous
 62
     7
370
     0
100
AcDbLine
 10
113.6806363764
 20
58.4557609417
 30
0.0
 11
113.6806363764
 21
64.8057609417
 31
0.0
  0
LINE
  5
1FF
330
1F7
100
AcDbEntity
  8
0
  6
Continuous
 62
     7
370
     0
100
AcDbLine
 10
113.6806363764
 20
58.4557609417
 30
0.0
 11
113.6806363764
 21
52.3557609417
 31
0.0
  0
LINE
  5
200
330
1F7
100
AcDbEntity
  8
0
  6
Continuous
 62
     7
370
     0
100
AcDbLine
 10
113.6806363764
 20
52.3557609417
 30
0.0
 11
113.6806363764
 21
46.0057609417
 31
0.0
  0
MTEXT
  5
201
330
1F7
100
AcDbEntity
  8
0
  6
Continuous
 62
     7
370
    18
100
AcDbMText
 10
109.1688994618
 20
50.7685286501
 30
0.0
 40
3.5
 41
0.0
 71
     1
 72
     1
  1
6.10
  7
SLDTEXTSTYLE0
 11
-7.044195017643634E-15
 21
1.0
 31
0.0
 73
     1
 44
1.0
  0
ENDBLK
  5
1F9
330
1F7
100
AcDbEntity
  8
0
100
AcDbBlockEnd
  0
BLOCK
  5
204
330
203
100
AcDbEntity
  8
0
100
AcDbBlockBegin
  2
_D_15
 70
     0
 10
0.0
 20
0.0
 30
0.0
  3
_D_15
  1

  0
SOLID
  5
206
330
203
100
AcDbEntity
  8
0
  6
Continuous
 62
     7
370
    18
100
AcDbTrace
 10
124.097709873
 20
77.329897891
 30
0.0
 11
122.3897495034
 21
74.4586369527
 31
0.0
 12
123.3317682996
 22
74.0780366538
 32
0.0
 13
123.3317682996
 23
74.0780366538
 33
0.0
  0
SOLID
  5
207
330
203
100
AcDbEntity
  8
0
  6
Continuous
 62
     7
370
    18
100
AcDbTrace
 10
127.7313938291
 20
86.3235812803
 30
0.0
 11
129.4393541987
 21
89.1948422186
 31
0.0
 12
128.4973354024
 22
89.5754425175
 32
0.0
 13
128.4973354024
 23
89.5754425175
 33
0.0
  0
LINE
  5
208
330
203
100
AcDbEntity
  8
0
  6
Continuous
 62
     7
370
     0
100
AcDbLine
 10
124.097709873
 20
77.329897891
 30
0.0
 11
121.7189580048
 21
71.4422804145
 31
0.0
  0
LINE
  5
209
330
203
100
AcDbEntity
  8
0
  6
Continuous
 62
     7
370
     0
100
AcDbLine
 10
124.097709873
 20
77.329897891
 30
0.0
 11
127.7313938291
 21
86.3235812803
 31
0.0
  0
LINE
  5
20A
330
203
100
AcDbEntity
  8
0
  6
Continuous
 62
     7
370
     0
100
AcDbLine
 10
127.7313938291
 20
86.3235812803
 30
0.0
 11
130.1101456973
 21
92.2111987568
 31
0.0
  0
MTEXT
  5
20B
330
203
100
AcDbEntity
  8
0
  6
Continuous
 62
     7
370
    18
100
AcDbMText
 10
120.7627352358
 20
81.1194795495
 30
0.0
 40
3.5
 41
0.0
 71
     1
 72
     1
  1
9.70
  7
SLDTEXTSTYLE0
 11
0.3746065934159101
 21
0.9271838545667882
 31
0.0
 73
     1
 44
1.0
  0
ENDBLK
  5
205
330
203
100
AcDbEntity
  8
0
100
AcDbBlockEnd
  0
BLOCK
  5
20E
330
20D
100
AcDbEntity
  8
0
100
AcDbBlockBegin
  2
_D_16
 70
     0
 10
0.0
 20
0.0
 30
0.0
  3
_D_16
  1

  0
SOLID
  5
210
330
20D
100
AcDbEntity
  8
0
  6
Continuous
 62
     7
370
    18
100
AcDbTrace
 10
140.3570483666
 20
96.08595313
 30
0.0
 11
143.6590483666
 21
95.57795313
 31
0.0
 12
143.6590483666
 22
96.59395313
 32
0.0
 13
143.6590483666
 23
96.59395313
 33
0.0
  0
SOLID
  5
211
330
20D
100
AcDbEntity
  8
0
  6
Continuous
 62
     7
370
    18
100
AcDbTrace
 10
120.3570483666
 20
96.08595313
 30
0.0
 11
117.0550483666
 21
96.59395313
 31
0.0
 12
117.0550483666
 22
95.57795313
 32
0.0
 13
117.0550483666
 23
95.57795313
 33
0.0
  0
LINE
  5
212
330
20D
100
AcDbEntity
  8
0
  6
Continuous
 62
     7
370
     0
100
AcDbLine
 10
140.3570483666
 20
81.547977212
 30
0.0
 11
140.3570483666
 21
97.08595313
 31
0.0
  0
LINE
  5
213
330
20D
100
AcDbEntity
  8
0
  6
Continuous
 62
     7
370
     0
100
AcDbLine
 10
120.3570483666
 20
88.820449277
 30
0.0
 11
120.3570483666
 21
97.08595313
 31
0.0
  0
LINE
  5
214
330
20D
100
AcDbEntity
  8
0
  6
Continuous
 62
     7
370
     0
100
AcDbLine
 10
140.3570483666
 20
96.08595313
 30
0.0
 11
146.7070483666
 21
96.08595313
 31
0.0
  0
LINE
  5
215
330
20D
100
AcDbEntity
  8
0
  6
Continuous
 62
     7
370
     0
100
AcDbLine
 10
140.3570483666
 20
96.08595313
 30
0.0
 11
120.3570483666
 21
96.08595313
 31
0.0
  0
LINE
  5
216
330
20D
100
AcDbEntity
  8
0
  6
Continuous
 62
     7
370
     0
100
AcDbLine
 10
120.3570483666
 20
96.08595313
 30
0.0
 11
114.0070483666
 21
96.08595313
 31
0.0
  0
MTEXT
  5
217
330
20D
100
AcDbEntity
  8
0
  6
Continuous
 62
     7
370
    18
100
AcDbMText
 10
126.3904652639
 20
100.5976900446
 30
0.0
 40
3.5
 41
0.0
 71
     1
 72
     1
  1
20.00
  7
SLDTEXTSTYLE0
 73
     1
 44
1.0
  0
ENDBLK
  5
20F
330
20D
100
AcDbEntity
  8
0
100
AcDbBlockEnd
  0
BLOCK
  5
21B
330
21A
100
AcDbEntity
  8
0
100
AcDbBlockBegin
  2
_D_17
 70
     0
 10
0.0
 20
0.0
 30
0.0
  3
_D_17
  1

  0
ARC
  5
21D
330
21A
100
AcDbEntity
  8
0
  6
Continuous
 62
     7
370
    18
100
AcDbCircle
 10
145.3570483666
 20
84.0557609417
 30
0.0
 40
27.76916888500742
100
AcDbArc
 50
338.0
 51
0.0
  0
ARC
  5
21E
330
21A
100
AcDbEntity
  8
0
  6
Continuous
 62
     7
370
    18
100
AcDbCircle
 10
145.3570483666
 20
84.0557609417
 30
0.0
 40
27.76916888500743
100
AcDbArc
 50
324.9710711873
 51
338.0
  0
ARC
  5
21F
330
21A
100
AcDbEntity
  8
0
  6
Continuous
 62
     7
370
    18
100
AcDbCircle
 10
145.3570483666
 20
84.0557609417
 30
0.0
 40
27.76916888500742
100
AcDbArc
 50
0.0
 51
13.0289288127
  0
SOLID
  5
220
330
21A
100
AcDbEntity
  8
0
  6
Continuous
 62
     7
370
    18
100
AcDbTrace
 10
171.1041734115
 20
73.6532471837
 30
0.0
 11
169.2293904852
 21
70.8880244116
 31
0.0
 12
170.1472508757
 22
70.4523774174
 32
0.0
 13
170.1472508757
 23
70.4523774174
 33
0.0
  0
SOLID
  5
221
330
21A
100
AcDbEntity
  8
0
  6
Continuous
 62
     7
370
    18
100
AcDbTrace
 10
173.1262172516
 20
84.0557609417
 30
0.0
 11
173.4380410455
 21
87.3820252008
 31
0.0
 12
172.4238194742
 22
87.3219368957
 32
0.0
 13
172.4238194742
 23
87.3219368957
 33
0.0
  0
LINE
  5
222
330
21A
100
AcDbEntity
  8
0
  6
Continuous
 62
     7
370
     0
100
AcDbLine
 10
146.2842322211
 20
83.6811543483
 30
0.0
 11
172.0313572661
 21
73.2786405903
 31
0.0
  0
LINE
  5
223
330
21A
100
AcDbEntity
  8
0
  6
Continuous
 62
     7
370
     0
100
AcDbLine
 10
149.3570483666
 20
84.0557609417
 30
0.0
 11
174.1262172516
 21
84.0557609417
 31
0.0
  0
MTEXT
  5
224
330
21A
100
AcDbEntity
  8
0
  6
Continuous
 62
     7
370
    18
100
AcDbMText
 10
167.5406923736
 20
76.2339599999
 30
0.0
 40
3.5
 41
0.0
 71
     1
 72
     1
  1
22°
  7
SLDTEXTSTYLE0
 11
0.1876774030474711
 21
0.9822307225827123
 31
0.0
 73
     1
 44
1.0
  0
ENDBLK
  5
21C
330
21A
100
AcDbEntity
  8
0
100
AcDbBlockEnd
  0
BLOCK
  5
227
330
226
100
AcDbEntity
  8
0
100
AcDbBlockBegin
  2
_D_18
 70
     0
 10
0.0
 20
0.0
 30
0.0
  3
_D_18
  1

  0
ARC
  5
229
330
226
100
AcDbEntity
  8
0
  6
Continuous
 62
     7
370
    18
100
AcDbCircle
 10
145.3570483666
 20
84.0557609417
 30
0.0
 40
12.03411115701875
100
AcDbArc
 50
0.0
 51
158.0
  0
SOLID
  5
22A
330
226
100
AcDbEntity
  8
0
  6
Continuous
 62
     7
370
    18
100
AcDbTrace
 10
157.3911595236
 20
84.0557609417
 30
0.0
 11
157.4538013019
 21
87.3960220105
 31
0.0
 12
156.4468954649
 22
87.2603878135
 32
0.0
 13
156.4468954649
 23
87.2603878135
 33
0.0
  0
SOLID
  5
22B
330
226
100
AcDbEntity
  8
0
  6
Continuous
 62
     7
370
    18
100
AcDbTrace
 10
134.1992147977
 20
88.563818327
 30
0.0
 11
136.275195543
 21
91.1813690801
 31
0.0
 12
135.3924181724
 22
91.6843204832
 32
0.0
 13
135.3924181724
 23
91.6843204832
 33
0.0
  0
LINE
  5
22C
330
226
100
AcDbEntity
  8
0
  6
Continuous
 62
     7
370
     0
100
AcDbLine
 10
149.3570483666
 20
84.0557609417
 30
0.0
 11
158.3911595236
 21
84.0557609417
 31
0.0
  0
MTEXT
  5
22D
330
226
100
AcDbEntity
  8
0
  6
Continuous
 62
     7
370
    18
100
AcDbMText
 10
140.9683441227
 20
100.7190295127
 30
0.0
 40
3.5
 41
0.0
 71
     1
 72
     1
  1
158°
  7
SLDTEXTSTYLE0
 11
0.9996743449771361
 21
-0.02551869891929624
 31
0.0
 73
     1
 44
1.0
  0
ENDBLK
  5
228
330
226
100
AcDbEntity
  8
0
100
AcDbBlockEnd
  0
BLOCK
  5
230
330
22F
100
AcDbEntity
  8
0
100
AcDbBlockBegin
  2
_D_19
 70
     0
 10
0.0
 20
0.0
 30
0.0
  3
_D_19
  1

  0
ARC
  5
232
330
22F
100
AcDbEntity
  8
0
  6
Continuous
 62
     7
370
    18
100
AcDbCircle
 10
129.8570483666
 20
42.2557609417
 30
0.0
 40
13.88132552293794
100
AcDbArc
 50
312.0
 51
0.0
  0
ARC
  5
233
330
22F
100
AcDbEntity
  8
0
  6
Continuous
 62
     7
370
    18
100
AcDbCircle
 10
129.8570483666
 20
42.2557609417
 30
0.0
 40
13.88132552293794
100
AcDbArc
 50
286.363175121
 51
312.0
  0
ARC
  5
234
330
22F
100
AcDbEntity
  8
0
  6
Continuous
 62
     7
370
    18
100
AcDbCircle
 10
129.8570483666
 20
42.2557609417
 30
0.0
 40
13.88132552293794
100
AcDbArc
 50
0.0
 51
25.636824879
  0
SOLID
  5
235
330
22F
100
AcDbEntity
  8
0
  6
Continuous
 62
     7
370
    18
100
AcDbTrace
 10
139.1454681308
 20
31.9399257086
 30
0.0
 11
136.1572846365
 21
30.4459285852
 31
0.0
 12
136.7445292514
 22
29.6168328354
 32
0.0
 13
136.7445292514
 23
29.6168328354
 33
0.0
  0
SOLID
  5
236
330
22F
100
AcDbEntity
  8
0
  6
Continuous
 62
     7
370
    18
100
AcDbTrace
 10
143.7383738895
 20
42.2557609417
 30
0.0
 11
143.8582266491
 21
45.5944587891
 31
0.0
 12
142.8491450876
 22
45.4760932441
 32
0.0
 13
142.8491450876
 23
45.4760932441
 33
0.0
  0
LINE
  5
237
330
22F
100
AcDbEntity
  8
0
  6
Continuous
 62
     7
370
     0
100
AcDbLine
 10
130.5261789729
 20
41.5126161162
 30
0.0
 11
139.8145987372
 21
31.1967808831
 31
0.0
  0
MTEXT
  5
238
330
22F
100
AcDbEntity
  8
0
  6
Continuous
 62
     7
370
    18
100
AcDbMText
 10
137.1089870089
 20
35.3575679783
 30
0.0
 40
3.5
 41
0.0
 71
     1
 72
     1
  1
48°
  7
SLDTEXTSTYLE0
 11
0.3904184588008099
 21
0.920637511199495
 31
0.0
 73
     1
 44
1.0
  0
ENDBLK
  5
231
330
22F
100
AcDbEntity
  8
0
100
AcDbBlockEnd
  0
BLOCK
  5
23B
330
23A
100
AcDbEntity
  8
0
100
AcDbBlockBegin
  2
_D_20
 70
     0
 10
0.0
 20
0.0
 30
0.0
  3
_D_20
  1

  0
ARC
  5
23D
330
23A
100
AcDbEntity
  8
0
  6
Continuous
 62
     7
370
    18
100
AcDbCircle
 10
129.8570483666
 20
42.2557609417
 30
0.0
 40
4.582280590218837
100
AcDbArc
 50
0.0
 51
132.0
  0
ARC
  5
23E
330
23A
100
AcDbEntity
  8
0
  6
Continuous
 62
     7
370
    18
100
AcDbCircle
 10
129.8570483666
 20
42.2557609417
 30
0.0
 40
4.582280590218843
100
AcDbArc
 50
293.5336347751
 51
0.0
  0
ARC
  5
23F
330
23A
100
AcDbEntity
  8
0
  6
Continuous
 62
     7
370
    18
100
AcDbCircle
 10
129.8570483666
 20
42.2557609417
 30
0.0
 40
4.58228059021884
100
AcDbArc
 50
132.0
 51
198.4663652249
  0
SOLID
  5
240
330
23A
100
AcDbEntity
  8
0
  6
Continuous
 62
     7
370
    18
100
AcDbTrace
 10
134.4393289568
 20
42.2557609417
 30
0.0
 11
132.9416374386
 21
39.2694273843
 31
0.0
 12
133.9085211214
 22
38.9573505606
 32
0.0
 13
133.9085211214
 23
38.9573505606
 33
0.0
  0
SOLID
  5
241
330
23A
100
AcDbEntity
  8
0
  6
Continuous
 62
     7
370
    18
100
AcDbTrace
 10
126.7909041767
 20
45.6610590512
 30
0.0
 11
124.6948873385
 21
43.0595246167
 31
0.0
 12
125.5737770801
 22
42.5498101652
 32
0.0
 13
125.5737770801
 23
42.5498101652
 33
0.0
  0
MTEXT
  5
242
330
23A
100
AcDbEntity
  8
0
  6
Continuous
 62
     7
370
    18
100
AcDbMText
 10
133.2749400018
 20
51.9603643415
 30
0.0
 40
3.5
 41
0.0
 71
     1
 72
     1
  1
132°
  7
SLDTEXTSTYLE0
 11
0.6782953048045796
 21
-0.7347894116548377
 31
0.0
 73
     1
 44
1.0
  0
ENDBLK
  5
23C
330
23A
100
AcDbEntity
  8
0
100
AcDbBlockEnd
  0
BLOCK
  5
245
330
244
100
AcDbEntity
  8
0
100
AcDbBlockBegin
  2
_D_21
 70
     0
 10
0.0
 20
0.0
 30
0.0
  3
_D_21
  1

  0
SOLID
  5
247
330
244
100
AcDbEntity
  8
0
  6
Continuous
 62
     7
370
    18
100
AcDbTrace
 10
117.3570483666
 20
114.2914165814
 30
0.0
 11
120.6590483666
 21
113.7834165814
 31
0.0
 12
120.6590483666
 22
114.7994165814
 32
0.0
 13
120.6590483666
 23
114.7994165814
 33
0.0
  0
SOLID
  5
248
330
244
100
AcDbEntity
  8
0
  6
Continuous
 62
     7
370
    18
100
AcDbTrace
 10
94.8570483666
 20
114.2914165814
 30
0.0
 11
91.5550483666
 21
114.7994165814
 31
0.0
 12
91.5550483666
 22
113.7834165814
 32
0.0
 13
91.5550483666
 23
113.7834165814
 33
0.0
  0
LINE
  5
249
330
244
100
AcDbEntity
  8
0
  6
Continuous
 62
     7
370
     0
100
AcDbLine
 10
117.3570483666
 20
95.6272147808
 30
0.0
 11
117.3570483666
 21
115.2914165814
 31
0.0
  0
LINE
  5
24A
330
244
100
AcDbEntity
  8
0
  6
Continuous
 62
     7
370
     0
100
AcDbLine
 10
94.8570483666
 20
93.3191309782
 30
0.0
 11
94.8570483666
 21
115.2914165814
 31
0.0
  0
LINE
  5
24B
330
244
100
AcDbEntity
  8
0
  6
Continuous
 62
     7
370
     0
100
AcDbLine
 10
117.3570483666
 20
114.2914165814
 30
0.0
 11
123.7070483666
 21
114.2914165814
 31
0.0
  0
LINE
  5
24C
330
244
100
AcDbEntity
  8
0
  6
Continuous
 62
     7
370
     0
100
AcDbLine
 10
117.3570483666
 20
114.2914165814
 30
0.0
 11
94.8570483666
 21
114.2914165814
 31
0.0
  0
LINE
  5
24D
330
244
100
AcDbEntity
  8
0
  6
Continuous
 62
     7
370
     0
100
AcDbLine
 10
94.8570483666
 20
114.2914165814
 30
0.0
 11
88.5070483666
 21
114.2914165814
 31
0.0
  0
MTEXT
  5
24E
330
244
100
AcDbEntity
  8
0
  6
Continuous
 62
     7
370
    18
100
AcDbMText
 10
96.3883237947
 20
118.803153496
 30
0.0
 40
3.5
 41
0.0
 71
     1
 72
     1
  1
22.50
  7
SLDTEXTSTYLE0
 73
     1
 44
1.0
  0
ENDBLK
  5
246
330
244
100
AcDbEntity
  8
0
100
AcDbBlockEnd
  0
BLOCK
  5
252
330
251
100
AcDbEntity
  8
0
100
AcDbBlockBegin
  2
_D_22
 70
     0
 10
0.0
 20
0.0
 30
0.0
  3
_D_22
  1

  0
SOLID
  5
254
330
251
100
AcDbEntity
  8
0
  6
Continuous
 62
     7
370
    18
100
AcDbTrace
 10
105.2117309231
 20
80.9704356389
 30
0.0
 11
104.8604542036
 21
77.6481062353
 31
0.0
 12
105.8753174565
 22
77.696153899
 32
0.0
 13
105.8753174565
 23
77.696153899
 33
0.0
  0
LINE
  5
255
330
251
100
AcDbEntity
  8
0
  6
Continuous
 62
     7
370
     0
100
AcDbLine
 10
105.2117309231
 20
80.9704356389
 30
0.0
 11
105.512028821
 21
74.6275403085
 31
0.0
  0
LINE
  5
256
330
251
100
AcDbEntity
  8
0
  6
Continuous
 62
     7
370
     0
100
AcDbLine
 10
105.2117309231
 20
80.9704356389
 30
0.0
 11
104.8570483666
 21
88.4620442969
 31
0.0
  0
MTEXT
  5
257
330
251
100
AcDbEntity
  8
0
  6
Continuous
 62
     7
370
    18
100
AcDbMText
 10
100.8183411615
 20
78.3639638336
 30
0.0
 40
3.5
 41
0.0
 71
     1
 72
     1
  1
R7.50
  7
SLDTEXTSTYLE0
 11
-0.04729100754170002
 21
0.9988811543951016
 31
0.0
 73
     1
 44
1.0
  0
ENDBLK
  5
253
330
251
100
AcDbEntity
  8
0
100
AcDbBlockEnd
  0
BLOCK
  5
25B
330
25A
100
AcDbEntity
  8
0
100
AcDbBlockBegin
  2
_D_23
 70
     0
 10
0.0
 20
0.0
 30
0.0
  3
_D_23
  1

  0
SOLID
  5
25D
330
25A
100
AcDbEntity
  8
0
  6
Continuous
 62
     7
370
    18
100
AcDbTrace
 10
91.7005479429
 20
82.7557609417
 30
0.0
 11
92.2085479429
 21
86.0577609417
 31
0.0
 12
91.1925479429
 22
86.0577609417
 32
0.0
 13
91.1925479429
 23
86.0577609417
 33
0.0
  0
SOLID
  5
25E
330
25A
100
AcDbEntity
  8
0
  6
Continuous
 62
     7
370
    18
100
AcDbTrace
 10
91.7005479429
 20
92.8071058289
 30
0.0
 11
91.1925479429
 21
89.5051058289
 31
0.0
 12
92.2085479429
 22
89.5051058289
 32
0.0
 13
92.2085479429
 23
89.5051058289
 33
0.0
  0
LINE
  5
25F
330
25A
100
AcDbEntity
  8
0
  6
Continuous
 62
     7
370
     0
100
AcDbLine
 10
109.971444897
 20
82.7557609417
 30
0.0
 11
90.7005479429
 21
82.7557609417
 31
0.0
  0
LINE
  5
260
330
25A
100
AcDbEntity
  8
0
  6
Continuous
 62
     7
370
     0
100
AcDbLine
 10
94.46604628
 20
92.8071058289
 30
0.0
 11
90.7005479429
 21
92.8071058289
 31
0.0
  0
LINE
  5
261
330
25A
100
AcDbEntity
  8
0
  6
Continuous
 62
     7
370
     0
100
AcDbLine
 10
91.7005479429
 20
82.7557609417
 30
0.0
 11
91.7005479429
 21
73.0253651969
 31
0.0
  0
LINE
  5
262
330
25A
100
AcDbEntity
  8
0
  6
Continuous
 62
     7
370
     0
100
AcDbLine
 10
91.7005479429
 20
82.7557609417
 30
0.0
 11
91.7005479429
 21
92.8071058289
 31
0.0
  0
MTEXT
  5
263
330
25A
100
AcDbEntity
  8
0
  6
Continuous
 62
     7
370
    18
100
AcDbMText
 10
87.1888110283
 20
73.0253651969
 30
0.0
 40
3.5
 41
0.0
 71
     1
 72
     1
  1
10.05
  7
SLDTEXTSTYLE0
 11
6.123233995736766E-17
 21
1.0
 31
0.0
 73
     1
 44
1.0
  0
ENDBLK
  5
25C
330
25A
100
AcDbEntity
  8
0
100
AcDbBlockEnd
  0
BLOCK
  5
266
330
265
100
AcDbEntity
  8
0
100
AcDbBlockBegin
  2
_D_24
 70
     0
 10
0.0
 20
0.0
 30
0.0
  3
_D_24
  1

  0
SOLID
  5
268
330
265
100
AcDbEntity
  8
0
  6
Continuous
 62
     7
370
    18
100
AcDbTrace
 10
163.7926624133
 20
84.0557609417
 30
0.0
 11
163.2846624133
 21
80.7537609417
 31
0.0
 12
164.3006624133
 22
80.7537609417
 32
0.0
 13
164.3006624133
 23
80.7537609417
 33
0.0
  0
SOLID
  5
269
330
265
100
AcDbEntity
  8
0
  6
Continuous
 62
     7
370
    18
100
AcDbTrace
 10
163.7926624133
 20
94.6557609417
 30
0.0
 11
164.3006624133
 21
97.9577609417
 31
0.0
 12
163.2846624133
 22
97.9577609417
 32
0.0
 13
163.2846624133
 23
97.9577609417
 33
0.0
  0
LINE
  5
26A
330
265
100
AcDbEntity
  8
0
  6
Continuous
 62
     7
370
     0
100
AcDbLine
 10
149.3570483666
 20
84.0557609417
 30
0.0
 11
164.7926624133
 21
84.0557609417
 31
0.0
  0
LINE
  5
26B
330
265
100
AcDbEntity
  8
0
  6
Continuous
 62
     7
370
     0
100
AcDbLine
 10
151.3570483666
 20
94.6557609417
 30
0.0
 11
164.7926624133
 21
94.6557609417
 31
0.0
  0
LINE
  5
26C
330
265
100
AcDbEntity
  8
0
  6
Continuous
 62
     7
370
     0
100
AcDbLine
 10
163.7926624133
 20
84.0557609417
 30
0.0
 11
163.7926624133
 21
77.7057609417
 31
0.0
  0
LINE
  5
26D
330
265
100
AcDbEntity
  8
0
  6
Continuous
 62
     7
370
     0
100
AcDbLine
 10
163.7926624133
 20
84.0557609417
 30
0.0
 11
163.7926624133
 21
94.6557609417
 31
0.0
  0
LINE
  5
26E
330
265
100
AcDbEntity
  8
0
  6
Continuous
 62
     7
370
     0
100
AcDbLine
 10
163.7926624133
 20
94.6557609417
 30
0.0
 11
163.7926624133
 21
101.0057609417
 31
0.0
  0
MTEXT
  5
26F
330
265
100
AcDbEntity
  8
0
  6
Continuous
 62
     7
370
    18
100
AcDbMText
 10
159.2809254987
 20
83.2641818241
 30
0.0
 40
3.5
 41
0.0
 71
     1
 72
     1
  1
10.60
  7
SLDTEXTSTYLE0
 11
2.281678389207681E-15
 21
1.0
 31
0.0
 73
     1
 44
1.0
  0
ENDBLK
  5
267
330
265
100
AcDbEntity
  8
0
100
AcDbBlockEnd
  0
BLOCK
  5
272
330
271
100
AcDbEntity
  8
0
100
AcDbBlockBegin
  2
_D_25
 70
     0
 10
0.0
 20
0.0
 30
0.0
  3
_D_25
  1

  0
SOLID
  5
274
330
271
100
AcDbEntity
  8
0
  6
Continuous
 62
     7
370
    18
100
AcDbTrace
 10
163.0909776359
 20
42.2557609417
 30
0.0
 11
162.5829776359
 21
38.9537609417
 31
0.0
 12
163.5989776359
 22
38.9537609417
 32
0.0
 13
163.5989776359
 23
38.9537609417
 33
0.0
  0
SOLID
  5
275
330
271
100
AcDbEntity
  8
0
  6
Continuous
 62
     7
370
    18
100
AcDbTrace
 10
163.0909776359
 20
17.1557609417
 30
0.0
 11
163.5989776359
 21
20.4577609417
 31
0.0
 12
162.5829776359
 22
20.4577609417
 32
0.0
 13
162.5829776359
 23
20.4577609417
 33
0.0
  0
LINE
  5
276
330
271
100
AcDbEntity
  8
0
  6
Continuous
 62
     7
370
     0
100
AcDbLine
 10
149.3570483666
 20
42.2557609417
 30
0.0
 11
164.0909776359
 21
42.2557609417
 31
0.0
  0
LINE
  5
277
330
271
100
AcDbEntity
  8
0
  6
Continuous
 62
     7
370
     0
100
AcDbLine
 10
151.3570483666
 20
17.1557609417
 30
0.0
 11
164.0909776359
 21
17.1557609417
 31
0.0
  0
LINE
  5
278
330
271
100
AcDbEntity
  8
0
  6
Continuous
 62
     7
370
     0
100
AcDbLine
 10
163.0909776359
 20
42.2557609417
 30
0.0
 11
163.0909776359
 21
17.1557609417
 31
0.0
  0
MTEXT
  5
279
330
271
100
AcDbEntity
  8
0
  6
Continuous
 62
     7
370
    18
100
AcDbMText
 10
158.5792407213
 20
19.6535392543
 30
0.0
 40
3.5
 41
0.0
 71
     1
 72
     1
  1
25.10
  7
SLDTEXTSTYLE0
 11
-6.156016597943509E-15
 21
1.0
 31
0.0
 73
     1
 44
1.0
  0
ENDBLK
  5
273
330
271
100
AcDbEntity
  8
0
100
AcDbBlockEnd
  0
BLOCK
  5
27B
330
27A
100
AcDbEntity
  8
0
100
AcDbBlockBegin
  2
SW_CENTERMARKSYMBOL_7
 70
     0
 10
0.0
 20
0.0
 30
0.0
  3
SW_CENTERMARKSYMBOL_7
  1

  0
LINE
  5
27D
330
27A
100
AcDbEntity
  8
0
  6
Continuous
 62
     0
370
    18
100
AcDbLine
 10
0.0
 20
0.0
 30
0.0
 11
0.0
 21
2.5
 31
0.0
  0
LINE
  5
27E
330
27A
100
AcDbEntity
  8
0
  6
Continuous
 62
     0
370
    18
100
AcDbLine
 10
0.0
 20
0.0
 30
0.0
 11
-2.5
 21
0.0
 31
0.0
  0
LINE
  5
27F
330
27A
100
AcDbEntity
  8
0
  6
Continuous
 62
     0
370
    18
100
AcDbLine
 10
0.0
 20
0.0
 30
0.0
 11
0.0
 21
-2.5
 31
0.0
  0
LINE
  5
280
330
27A
100
AcDbEntity
  8
0
  6
Continuous
 62
     0
370
    18
100
AcDbLine
 10
0.0
 20
0.0
 30
0.0
 11
2.5
 21
0.0
 31
0.0
  0
LINE
  5
281
330
27A
100
AcDbEntity
  8
0
  6
Continuous
 62
     0
370
    18
100
AcDbLine
 10
0.0
 20
2.5
 30
0.0
 11
0.0
 21
5.0
 31
0.0
  0
LINE
  5
282
330
27A
100
AcDbEntity
  8
0
  6
Continuous
 62
     0
370
    18
100
AcDbLine
 10
-2.5
 20
0.0
 30
0.0
 11
-5.0
 21
0.0
 31
0.0
  0
LINE
  5
283
330
27A
100
AcDbEntity
  8
0
  6
Continuous
 62
     0
370
    18
100
AcDbLine
 10
0.0
 20
-2.5
 30
0.0
 11
0.0
 21
-5.0
 31
0.0
  0
LINE
  5
284
330
27A
100
AcDbEntity
  8
0
  6
Continuous
 62
     0
370
    18
100
AcDbLine
 10
2.5
 20
0.0
 30
0.0
 11
5.0
 21
0.0
 31
0.0
  0
ENDBLK
  5
27C
330
27A
100
AcDbEntity
  8
0
100
AcDbBlockEnd
  0
BLOCK
  5
287
330
286
100
AcDbEntity
  8
0
100
AcDbBlockBegin
  2
SW_CENTERMARKSYMBOL_8
 70
     0
 10
0.0
 20
0.0
 30
0.0
  3
SW_CENTERMARKSYMBOL_8
  1

  0
LINE
  5
289
330
286
100
AcDbEntity
  8
0
  6
Continuous
 62
     0
370
    18
100
AcDbLine
 10
0.0
 20
0.0
 30
0.0
 11
0.0
 21
2.5
 31
0.0
  0
LINE
  5
28A
330
286
100
AcDbEntity
  8
0
  6
Continuous
 62
     0
370
    18
100
AcDbLine
 10
0.0
 20
0.0
 30
0.0
 11
-2.5
 21
0.0
 31
0.0
  0
LINE
  5
28B
330
286
100
AcDbEntity
  8
0
  6
Continuous
 62
     0
370
    18
100
AcDbLine
 10
0.0
 20
0.0
 30
0.0
 11
0.0
 21
-2.5
 31
0.0
  0
LINE
  5
28C
330
286
100
AcDbEntity
  8
0
  6
Continuous
 62
     0
370
    18
100
AcDbLine
 10
0.0
 20
0.0
 30
0.0
 11
2.5
 21
0.0
 31
0.0
  0
LINE
  5
28D
330
286
100
AcDbEntity
  8
0
  6
Continuous
 62
     0
370
    18
100
AcDbLine
 10
0.0
 20
2.5
 30
0.0
 11
0.0
 21
5.0
 31
0.0
  0
LINE
  5
28E
330
286
100
AcDbEntity
  8
0
  6
Continuous
 62
     0
370
    18
100
AcDbLine
 10
-2.5
 20
0.0
 30
0.0
 11
-5.0
 21
0.0
 31
0.0
  0
LINE
  5
28F
330
286
100
AcDbEntity
  8
0
  6
Continuous
 62
     0
370
    18
100
AcDbLine
 10
0.0
 20
-2.5
 30
0.0
 11
0.0
 21
-5.0
 31
0.0
  0
LINE
  5
290
330
286
100
AcDbEntity
  8
0
  6
Continuous
 62
     0
370
    18
100
AcDbLine
 10
2.5
 20
0.0
 30
0.0
 11
5.0
 21
0.0
 31
0.0
  0
ENDBLK
  5
288
330
286
100
AcDbEntity
  8
0
100
AcDbBlockEnd
  0
ENDSEC
  0
SECTION
  2
ENTITIES
  0
LINE
  5
74
330
1F
100
AcDbEntity
  8
0
  6
Continuous
 62
     7
370
    25
100
AcDbLine
 10
148.3570483666
 20
105.0879843738
 30
0.0
 11
150.3570483666
 21
105.0879843738
 31
0.0
  0
LINE
  5
75
330
1F
100
AcDbEntity
  8
0
  6
Continuous
 62
     7
370
    25
100
AcDbLine
 10
150.3570483666
 20
182.5879843738
 30
0.0
 11
148.3570483666
 21
182.5879843738
 31
0.0
  0
LINE
  5
76
330
1F
100
AcDbEntity
  8
0
  6
Continuous
 62
     7
370
    25
100
AcDbLine
 10
98.0955079643
 20
127.179533614
 30
0.0
 11
98.0955079643
 21
129.3379843738
 31
0.0
  0
LINE
  5
77
330
1F
100
AcDbEntity
  8
0
  6
Continuous
 62
     7
370
    25
100
AcDbLine
 10
98.0955079643
 20
158.1509734315
 30
0.0
 11
98.0955079643
 21
160.4964351336
 31
0.0
  0
LINE
  5
78
330
1F
100
AcDbEntity
  8
0
  6
Continuous
 62
     7
370
    25
100
AcDbLine
 10
150.3570483666
 20
133.4879843738
 30
0.0
 11
155.3570483666
 21
133.4879843738
 31
0.0
  0
LINE
  5
79
330
1F
100
AcDbEntity
  8
0
  6
Continuous
 62
     7
370
    25
100
AcDbLine
 10
155.3570483666
 20
154.1879843738
 30
0.0
 11
150.3570483666
 21
154.1879843738
 31
0.0
  0
LINE
  5
7A
330
1F
100
AcDbEntity
  8
0
  6
Continuous
 62
     7
370
    25
100
AcDbLine
 10
155.3570483666
 20
135.3379843738
 30
0.0
 11
167.3570483666
 21
135.3379843738
 31
0.0
  0
LINE
  5
7B
330
1F
100
AcDbEntity
  8
0
  6
Continuous
 62
     7
370
    25
100
AcDbLine
 10
167.3570483666
 20
152.3379843738
 30
0.0
 11
155.3570483666
 21
152.3379843738
 31
0.0
  0
LINE
  5
7C
330
1F
100
AcDbEntity
  8
0
  6
Continuous
 62
     7
370
    25
100
AcDbLine
 10
117.3570483666
 20
129.3379843738
 30
0.0
 11
117.3570483666
 21
126.8365584474
 31
0.0
  0
LINE
  5
7D
330
1F
100
AcDbEntity
  8
0
  6
Continuous
 62
     7
370
    25
100
AcDbLine
 10
118.0443516633
 20
129.3379843738
 30
0.0
 11
118.0443516633
 21
126.8243201758
 31
0.0
  0
LINE
  5
7E
330
1F
100
AcDbEntity
  8
0
  6
Continuous
 62
     7
370
    25
100
AcDbLine
 10
117.3570483666
 20
129.3379843738
 30
0.0
 11
118.0443516633
 21
129.3379843738
 31
0.0
  0
LINE
  5
7F
330
1F
100
AcDbEntity
  8
0
  6
Continuous
 62
     7
370
    25
100
AcDbLine
 10
118.0443516633
 20
126.8243201758
 30
0.0
 11
117.3570483666
 21
126.8365584474
 31
0.0
  0
LINE
  5
80
330
1F
100
AcDbEntity
  8
0
  6
Continuous
 62
     7
370
    25
100
AcDbLine
 10
118.0443516633
 20
160.8516485717
 30
0.0
 11
118.0443516633
 21
158.2299097511
 31
0.0
  0
LINE
  5
81
330
1F
100
AcDbEntity
  8
0
  6
Continuous
 62
     7
370
    25
100
AcDbLine
 10
118.0443516633
 20
158.2299097511
 30
0.0
 11
117.3570483666
 21
158.2271901352
 31
0.0
  0
LINE
  5
82
330
1F
100
AcDbEntity
  8
0
  6
Continuous
 62
     7
370
    25
100
AcDbLine
 10
117.3570483666
 20
160.8394103001
 30
0.0
 11
117.3570483666
 21
158.2271901352
 31
0.0
  0
LINE
  5
83
330
1F
100
AcDbEntity
  8
0
  6
Continuous
 62
     7
370
    25
100
AcDbLine
 10
117.3570483666
 20
160.8394103001
 30
0.0
 11
118.0443516633
 21
160.8516485717
 31
0.0
  0
ARC
  5
84
330
1F
100
AcDbEntity
  8
0
  6
Continuous
 62
     7
370
    25
100
AcDbCircle
 10
144.8570483666
 20
129.8379843738
 30
0.0
 40
0.5
100
AcDbArc
 50
270.0
 51
0.0
  0
LINE
  5
85
330
1F
100
AcDbEntity
  8
0
  6
Continuous
 62
     7
370
    25
100
AcDbLine
 10
145.3570483666
 20
129.8379843738
 30
0.0
 11
145.3570483666
 21
126.3379843738
 31
0.0
  0
LINE
  5
86
330
1F
100
AcDbEntity
  8
0
  6
Continuous
 62
     7
370
    25
100
AcDbLine
 10
118.0443516633
 20
129.3379843738
 30
0.0
 11
144.8570483666
 21
129.3379843738
 31
0.0
  0
LINE
  5
87
330
1F
100
AcDbEntity
  8
0
  6
Continuous
 62
     7
370
    25
100
AcDbLine
 10
145.3570483666
 20
126.3379843738
 30
0.0
 11
118.0443516633
 21
126.8243201758
 31
0.0
  0
LINE
  5
88
330
1F
100
AcDbEntity
  8
0
  6
Continuous
 62
     7
370
    25
100
AcDbLine
 10
145.3570483666
 20
161.3379843738
 30
0.0
 11
145.3570483666
 21
157.8360019909
 31
0.0
  0
ARC
  5
89
330
1F
100
AcDbEntity
  8
0
  6
Continuous
 62
     7
370
    25
100
AcDbCircle
 10
144.8570483666
 20
157.8360019909
 30
0.0
 40
0.4999999999999716
100
AcDbArc
 50
0.0
 51
90.226714612
  0
LINE
  5
8A
330
1F
100
AcDbEntity
  8
0
  6
Continuous
 62
     7
370
    25
100
AcDbLine
 10
144.8550699135
 20
158.3359980766
 30
0.0
 11
118.0443516633
 21
158.2299097511
 31
0.0
  0
LINE
  5
8B
330
1F
100
AcDbEntity
  8
0
  6
Continuous
 62
     7
370
    25
100
AcDbLine
 10
118.0443516633
 20
160.8516485717
 30
0.0
 11
145.3570483666
 21
161.3379843738
 31
0.0
  0
LINE
  5
8C
330
1F
100
AcDbEntity
  8
0
  6
Continuous
 62
     7
370
    25
100
AcDbLine
 10
148.3570483666
 20
182.5879843738
 30
0.0
 11
148.3570483666
 21
105.0879843738
 31
0.0
  0
LINE
  5
8D
330
1F
100
AcDbEntity
  8
0
  6
Continuous
 62
     7
370
    25
100
AcDbLine
 10
150.3570483666
 20
182.5879843738
 30
0.0
 11
150.3570483666
 21
105.0879843738
 31
0.0
  0
LINE
  5
8E
330
1F
100
AcDbEntity
  8
0
  6
Continuous
 62
     7
370
    25
100
AcDbLine
 10
95.46604628
 20
160.4496143684
 30
0.0
 11
95.46604628
 21
158.140568817
 31
0.0
  0
LINE
  5
8F
330
1F
100
AcDbEntity
  8
0
  6
Continuous
 62
     7
370
    25
100
AcDbLine
 10
94.8570483666
 20
160.4387704195
 30
0.0
 11
94.8570483666
 21
158.1381590506
 31
0.0
  0
LINE
  5
90
330
1F
100
AcDbEntity
  8
0
  6
Continuous
 62
     7
370
    25
100
AcDbLine
 10
95.46604628
 20
158.140568817
 30
0.0
 11
94.8570483666
 21
158.1381590506
 31
0.0
  0
LINE
  5
91
330
1F
100
AcDbEntity
  8
0
  6
Continuous
 62
     7
370
    25
100
AcDbLine
 10
94.8570483666
 20
160.4387704195
 30
0.0
 11
95.46604628
 21
160.4496143684
 31
0.0
  0
LINE
  5
92
330
1F
100
AcDbEntity
  8
0
  6
Continuous
 62
     7
370
    25
100
AcDbLine
 10
94.8570483666
 20
129.3379843738
 30
0.0
 11
94.8570483666
 21
127.237198328
 31
0.0
  0
LINE
  5
93
330
1F
100
AcDbEntity
  8
0
  6
Continuous
 62
     7
370
    25
100
AcDbLine
 10
95.46604628
 20
129.3379843738
 30
0.0
 11
95.46604628
 21
127.2263543791
 31
0.0
  0
LINE
  5
94
330
1F
100
AcDbEntity
  8
0
  6
Continuous
 62
     7
370
    25
100
AcDbLine
 10
94.8570483666
 20
129.3379843738
 30
0.0
 11
95.46604628
 21
129.3379843738
 31
0.0
  0
LINE
  5
95
330
1F
100
AcDbEntity
  8
0
  6
Continuous
 62
     7
370
    25
100
AcDbLine
 10
95.46604628
 20
127.2263543791
 30
0.0
 11
94.8570483666
 21
127.237198328
 31
0.0
  0
LINE
  5
96
330
1F
100
AcDbEntity
  8
0
  6
Continuous
 62
     7
370
    25
100
AcDbLine
 10
97.7045058777
 20
160.4894728656
 30
0.0
 11
97.7045058777
 21
158.1494262608
 31
0.0
  0
LINE
  5
97
330
1F
100
AcDbEntity
  8
0
  6
Continuous
 62
     7
370
    25
100
AcDbLine
 10
97.7045058777
 20
158.1494262608
 30
0.0
 11
95.46604628
 21
158.140568817
 31
0.0
  0
LINE
  5
98
330
1F
100
AcDbEntity
  8
0
  6
Continuous
 62
     7
370
    25
100
AcDbLine
 10
95.46604628
 20
160.4496143684
 30
0.0
 11
97.7045058777
 21
160.4894728656
 31
0.0
  0
LINE
  5
99
330
1F
100
AcDbEntity
  8
0
  6
Continuous
 62
     7
370
    25
100
AcDbLine
 10
97.7045058777
 20
129.3379843738
 30
0.0
 11
97.7045058777
 21
127.1864958819
 31
0.0
  0
LINE
  5
9A
330
1F
100
AcDbEntity
  8
0
  6
Continuous
 62
     7
370
    25
100
AcDbLine
 10
95.46604628
 20
129.3379843738
 30
0.0
 11
97.7045058777
 21
129.3379843738
 31
0.0
  0
LINE
  5
9B
330
1F
100
AcDbEntity
  8
0
  6
Continuous
 62
     7
370
    25
100
AcDbLine
 10
97.7045058777
 20
127.1864958819
 30
0.0
 11
95.46604628
 21
127.2263543791
 31
0.0
  0
LINE
  5
9C
330
1F
100
AcDbEntity
  8
0
  6
Continuous
 62
     7
370
    25
100
AcDbLine
 10
97.7045058777
 20
129.3379843738
 30
0.0
 11
98.0955079643
 21
129.3379843738
 31
0.0
  0
LINE
  5
9D
330
1F
100
AcDbEntity
  8
0
  6
Continuous
 62
     7
370
    25
100
AcDbLine
 10
98.0955079643
 20
127.179533614
 30
0.0
 11
97.7045058777
 21
127.1864958819
 31
0.0
  0
LINE
  5
9E
330
1F
100
AcDbEntity
  8
0
  6
Continuous
 62
     7
370
    25
100
AcDbLine
 10
98.0955079643
 20
158.1509734315
 30
0.0
 11
97.7045058777
 21
158.1494262608
 31
0.0
  0
LINE
  5
9F
330
1F
100
AcDbEntity
  8
0
  6
Continuous
 62
     7
370
    25
100
AcDbLine
 10
97.7045058777
 20
160.4894728656
 30
0.0
 11
98.0955079643
 21
160.4964351336
 31
0.0
  0
LINE
  5
A0
330
1F
100
AcDbEntity
  8
0
  6
Continuous
 62
     7
370
    25
100
AcDbLine
 10
108.9087527097
 20
160.6889781151
 30
0.0
 11
108.9087527097
 21
158.1937607607
 31
0.0
  0
LINE
  5
A1
330
1F
100
AcDbEntity
  8
0
  6
Continuous
 62
     7
370
    25
100
AcDbLine
 10
108.9087527097
 20
158.1937607607
 30
0.0
 11
98.0955079643
 21
158.1509734315
 31
0.0
  0
LINE
  5
A2
330
1F
100
AcDbEntity
  8
0
  6
Continuous
 62
     7
370
    25
100
AcDbLine
 10
98.0955079643
 20
160.4964351336
 30
0.0
 11
108.9087527097
 21
160.6889781151
 31
0.0
  0
LINE
  5
A3
330
1F
100
AcDbEntity
  8
0
  6
Continuous
 62
     7
370
    25
100
AcDbLine
 10
108.9087527097
 20
129.3379843738
 30
0.0
 11
108.9087527097
 21
126.9869906325
 31
0.0
  0
LINE
  5
A4
330
1F
100
AcDbEntity
  8
0
  6
Continuous
 62
     7
370
    25
100
AcDbLine
 10
98.0955079643
 20
129.3379843738
 30
0.0
 11
108.9087527097
 21
129.3379843738
 31
0.0
  0
LINE
  5
A5
330
1F
100
AcDbEntity
  8
0
  6
Continuous
 62
     7
370
    25
100
AcDbLine
 10
108.9087527097
 20
126.9869906325
 30
0.0
 11
98.0955079643
 21
127.179533614
 31
0.0
  0
LINE
  5
A6
330
1F
100
AcDbEntity
  8
0
  6
Continuous
 62
     7
370
    25
100
AcDbLine
 10
113.5388548128
 20
129.3379843738
 30
0.0
 11
113.5388548128
 21
126.9045460301
 31
0.0
  0
LINE
  5
A7
330
1F
100
AcDbEntity
  8
0
  6
Continuous
 62
     7
370
    25
100
AcDbLine
 10
113.5388548128
 20
129.3379843738
 30
0.0
 11
117.3570483666
 21
129.3379843738
 31
0.0
  0
LINE
  5
A8
330
1F
100
AcDbEntity
  8
0
  6
Continuous
 62
     7
370
    25
100
AcDbLine
 10
117.3570483666
 20
126.8365584474
 30
0.0
 11
113.5388548128
 21
126.9045460301
 31
0.0
  0
LINE
  5
A9
330
1F
100
AcDbEntity
  8
0
  6
Continuous
 62
     7
370
    25
100
AcDbLine
 10
113.5388548128
 20
160.7714227175
 30
0.0
 11
113.5388548128
 21
158.2120817835
 31
0.0
  0
LINE
  5
AA
330
1F
100
AcDbEntity
  8
0
  6
Continuous
 62
     7
370
    25
100
AcDbLine
 10
117.3570483666
 20
158.2271901352
 30
0.0
 11
113.5388548128
 21
158.2120817835
 31
0.0
  0
LINE
  5
AB
330
1F
100
AcDbEntity
  8
0
  6
Continuous
 62
     7
370
    25
100
AcDbLine
 10
113.5388548128
 20
160.7714227175
 30
0.0
 11
117.3570483666
 21
160.8394103001
 31
0.0
  0
LINE
  5
AC
330
1F
100
AcDbEntity
  8
0
  6
Continuous
 62
     7
370
    25
100
AcDbLine
 10
145.3570483666
 20
161.3379843738
 30
0.0
 11
147.8570483666
 21
161.3379843738
 31
0.0
  0
ARC
  5
AD
330
1F
100
AcDbEntity
  8
0
  6
Continuous
 62
     7
370
    25
100
AcDbCircle
 10
147.8570483666
 20
161.8379843738
 30
0.0
 40
0.5
100
AcDbArc
 50
270.0
 51
0.0
  0
ARC
  5
AE
330
1F
100
AcDbEntity
  8
0
  6
Continuous
 62
     7
370
    25
100
AcDbCircle
 10
147.8570483666
 20
125.8379843738
 30
0.0
 40
0.5
100
AcDbArc
 50
0.0
 51
90.0
  0
LINE
  5
AF
330
1F
100
AcDbEntity
  8
0
  6
Continuous
 62
     7
370
    25
100
AcDbLine
 10
145.3570483666
 20
126.3379843738
 30
0.0
 11
147.8570483666
 21
126.3379843738
 31
0.0
  0
LINE
  5
B0
330
1F
100
AcDbEntity
  8
0
  6
Continuous
 62
     7
370
    25
100
AcDbLine
 10
145.3570483666
 20
157.8360019909
 30
0.0
 11
145.3570483666
 21
129.8379843738
 31
0.0
  0
LINE
  5
B1
330
1F
100
AcDbEntity
  8
0
  6
Continuous
 62
     7
370
    25
100
AcDbLine
 10
110.971444897
 20
160.7257068596
 30
0.0
 11
110.971444897
 21
158.2019227039
 31
0.0
  0
LINE
  5
B2
330
1F
100
AcDbEntity
  8
0
  6
Continuous
 62
     7
370
    25
100
AcDbLine
 10
110.971444897
 20
158.2019227039
 30
0.0
 11
108.9087527097
 21
158.1937607607
 31
0.0
  0
LINE
  5
B3
330
1F
100
AcDbEntity
  8
0
  6
Continuous
 62
     7
370
    25
100
AcDbLine
 10
108.9087527097
 20
160.6889781151
 30
0.0
 11
110.971444897
 21
160.7257068596
 31
0.0
  0
LINE
  5
B4
330
1F
100
AcDbEntity
  8
0
  6
Continuous
 62
     7
370
    25
100
AcDbLine
 10
110.971444897
 20
129.3379843738
 30
0.0
 11
110.971444897
 21
126.9502618879
 31
0.0
  0
LINE
  5
B5
330
1F
100
AcDbEntity
  8
0
  6
Continuous
 62
     7
370
    25
100
AcDbLine
 10
110.971444897
 20
129.3379843738
 30
0.0
 11
113.5388548128
 21
129.3379843738
 31
0.0
  0
LINE
  5
B6
330
1F
100
AcDbEntity
  8
0
  6
Continuous
 62
     7
370
    25
100
AcDbLine
 10
113.5388548128
 20
126.9045460301
 30
0.0
 11
110.971444897
 21
126.9502618879
 31
0.0
  0
LINE
  5
B7
330
1F
100
AcDbEntity
  8
0
  6
Continuous
 62
     7
370
    25
100
AcDbLine
 10
108.9087527097
 20
129.3379843738
 30
0.0
 11
110.971444897
 21
129.3379843738
 31
0.0
  0
LINE
  5
B8
330
1F
100
AcDbEntity
  8
0
  6
Continuous
 62
     7
370
    25
100
AcDbLine
 10
110.971444897
 20
126.9502618879
 30
0.0
 11
108.9087527097
 21
126.9869906325
 31
0.0
  0
LINE
  5
B9
330
1F
100
AcDbEntity
  8
0
  6
Continuous
 62
     7
370
    25
100
AcDbLine
 10
113.5388548128
 20
158.2120817835
 30
0.0
 11
110.971444897
 21
158.2019227039
 31
0.0
  0
LINE
  5
BA
330
1F
100
AcDbEntity
  8
0
  6
Continuous
 62
     7
370
    25
100
AcDbLine
 10
110.971444897
 20
160.7257068596
 30
0.0
 11
113.5388548128
 21
160.7714227175
 31
0.0
  0
LINE
  5
BB
330
1F
100
AcDbEntity
  8
0
  6
Continuous
 62
     7
370
    25
100
AcDbLine
 10
155.3570483666
 20
154.1879843738
 30
0.0
 11
155.3570483666
 21
133.4879843738
 31
0.0
  0
LINE
  5
BC
330
1F
100
AcDbEntity
  8
0
  6
Continuous
 62
     7
370
    25
100
AcDbLine
 10
167.3570483666
 20
152.3379843738
 30
0.0
 11
167.3570483666
 21
135.3379843738
 31
0.0
  0
DIMENSION
  5
BD
330
1F
100
AcDbEntity
  8
0
  6
Continuous
 62
     7
370
    18
100
AcDbDimension
  2
_D
 10
94.8570483666
 20
167.9488420912
 30
0.0
 11
118.5374745445
 21
167.9488420912
 31
0.0
 70
   160
  1
<>
 71
     2
 42
-1.0
  3
SLDDIMSTYLE0
100
AcDbAlignedDimension
 13
148.3570483666
 23
182.5879843738
 33
0.0
 14
94.8570483666
 24
160.4387704195
 34
0.0
100
AcDbRotatedDimension
  0
DIMENSION
  5
C8
330
1F
100
AcDbEntity
  8
0
  6
Continuous
 62
     7
370
    18
100
AcDbDimension
  2
_D_1
 10
144.3744194519
 20
158.3359652832
 30
0.0
 11
144.3753930581
 21
144.0659041207
 31
0.0
 70
   160
  1
<>
 71
     2
 42
-1.0
  3
SLDDIMSTYLE0
100
AcDbAlignedDimension
 13
144.8570483666
 23
129.3379843738
 33
0.0
 14
144.8550699135
 24
158.3359980766
 34
0.0
 50
-89.9960908698
100
AcDbRotatedDimension
  0
DIMENSION
  5
D2
330
1F
100
AcDbEntity
  8
0
  6
Continuous
 62
     7
370
    18
100
AcDbDimension
  2
_D_2
 10
95.2922973635
 20
129.3379843738
 30
0.0
 11
95.2922973635
 21
144.0659041207
 31
0.0
 70
   160
  1
<>
 71
     2
 42
-1.0
  3
SLDDIMSTYLE0
100
AcDbAlignedDimension
 13
94.8570483666
 23
158.1381590506
 33
0.0
 14
94.8570483666
 24
129.3379843738
 34
0.0
 50
90.0
100
AcDbRotatedDimension
  0
DIMENSION
  5
DC
330
1F
100
AcDbEntity
  8
0
  6
Continuous
 62
     7
370
    18
100
AcDbDimension
  2
_D_3
 10
89.6908369305
 20
126.3379843738
 30
0.0
 11
89.6908369305
 21
144.0659041207
 31
0.0
 70
   160
  1
<>
 71
     2
 42
-1.0
  3
SLDDIMSTYLE0
100
AcDbAlignedDimension
 13
145.3570483666
 23
161.3379843738
 33
0.0
 14
145.3570483666
 24
126.3379843738
 34
0.0
 50
90.0
100
AcDbRotatedDimension
  0
DIMENSION
  5
E6
330
1F
100
AcDbEntity
  8
0
  6
Continuous
 62
     7
370
    18
100
AcDbDimension
  2
_D_4
 10
166.4528863021
 20
135.3379843738
 30
0.0
 11
166.4528863021
 21
144.0659041207
 31
0.0
 70
   160
  1
%%c<>
 71
     2
 42
-1.0
  3
SLDDIMSTYLE1
100
AcDbAlignedDimension
 13
167.3570483666
 23
152.3379843738
 33
0.0
 14
167.3570483666
 24
135.3379843738
 34
0.0
 50
90.0
100
AcDbRotatedDimension
  0
DIMENSION
  5
F2
330
1F
100
AcDbEntity
  8
0
  6
Continuous
 62
     7
370
    18
100
AcDbDimension
  2
_D_5
 10
155.5299767061
 20
133.4879843738
 30
0.0
 11
155.5299767061
 21
144.0659041207
 31
0.0
 70
   160
  1
%%c<>
 71
     2
 42
-1.0
  3
SLDDIMSTYLE1
100
AcDbAlignedDimension
 13
155.3570483666
 23
154.1879843738
 33
0.0
 14
155.3570483666
 24
133.4879843738
 34
0.0
 50
90.0
100
AcDbRotatedDimension
  0
DIMENSION
  5
FF
330
1F
100
AcDbEntity
  8
0
  6
Continuous
 62
     7
370
    18
100
AcDbDimension
  2
_D_6
 10
148.3570483666
 20
180.9450126265
 30
0.0
 11
133.5872273909
 21
180.9450126265
 31
0.0
 70
   160
  1
<>
 71
     2
 42
-1.0
  3
SLDDIMSTYLE1
100
AcDbAlignedDimension
 13
145.3570483666
 23
161.3379843738
 33
0.0
 14
148.3570483666
 24
182.5879843738
 34
0.0
100
AcDbRotatedDimension
  0
DIMENSION
  5
10A
330
1F
100
AcDbEntity
  8
0
  6
Continuous
 62
     7
370
    18
100
AcDbDimension
  2
_D_7
 10
150.3570483666
 20
188.7186072371
 30
0.0
 11
150.827243756
 21
188.7186072371
 31
0.0
 70
   160
  1
<>
 71
     2
 42
-1.0
  3
SLDDIMSTYLE1
100
AcDbAlignedDimension
 13
148.3570483666
 23
182.5879843738
 33
0.0
 14
150.3570483666
 24
182.5879843738
 34
0.0
100
AcDbRotatedDimension
  0
DIMENSION
  5
116
330
1F
100
AcDbEntity
  8
0
  6
Continuous
 62
     7
370
    18
100
AcDbDimension
  2
_D_8
 10
150.3570483666
 20
180.9450126265
 30
0.0
 11
160.7395599492
 21
180.9450126265
 31
0.0
 70
   160
  1
<>
 71
     2
 42
-1.0
  3
SLDDIMSTYLE1
100
AcDbAlignedDimension
 13
155.3570483666
 23
154.1879843738
 33
0.0
 14
150.3570483666
 24
154.1879843738
 34
0.0
100
AcDbRotatedDimension
  0
DIMENSION
  5
122
330
1F
100
AcDbEntity
  8
0
  6
Continuous
 62
     7
370
    18
100
AcDbDimension
  2
_D_9
 10
155.3570483666
 20
163.0833067375
 30
0.0
 11
160.5686579458
 21
163.0833067375
 31
0.0
 70
   160
  1
<>
 71
     2
 42
-1.0
  3
SLDDIMSTYLE1
100
AcDbAlignedDimension
 13
167.3570483666
 23
152.3379843738
 33
0.0
 14
155.3570483666
 24
152.3379843738
 34
0.0
100
AcDbRotatedDimension
  0
LINE
  5
12E
330
1F
100
AcDbEntity
  8
0
  6
Continuous
 62
     7
370
    25
100
AcDbLine
 10
183.4551401325
 20
129.3379843738
 30
0.0
 11
183.4551401325
 21
126.827655339
 31
0.0
  0
LINE
  5
12F
330
1F
100
AcDbEntity
  8
0
  6
Continuous
 62
     7
370
    25
100
AcDbLine
 10
183.4551401325
 20
160.8483134086
 30
0.0
 11
183.4551401325
 21
158.2291686037
 31
0.0
  0
LINE
  5
130
330
1F
100
AcDbEntity
  8
0
  6
Continuous
 62
     7
370
    25
100
AcDbLine
 10
185.763223935
 20
158.2271901352
 30
0.0
 11
185.763223935
 21
158.1401375191
 31
0.0
  0
CIRCLE
  5
131
330
1F
100
AcDbEntity
  8
0
  6
Continuous
 62
     7
370
    25
100
AcDbCircle
 10
222.6765939716
 20
143.8379843738
 30
0.0
 40
1.700000000000017
  0
CIRCLE
  5
132
330
1F
100
AcDbEntity
  8
0
  6
Continuous
 62
     7
370
    25
100
AcDbCircle
 10
222.6765939716
 20
143.8379843738
 30
0.0
 40
8.5
  0
CIRCLE
  5
133
330
1F
100
AcDbEntity
  8
0
  6
Continuous
 62
     7
370
    25
100
AcDbCircle
 10
222.6765939716
 20
143.8379843738
 30
0.0
 40
10.35000000000002
  0
CIRCLE
  5
134
330
1F
100
AcDbEntity
  8
0
  6
Continuous
 62
     7
370
    25
100
AcDbCircle
 10
222.6765939716
 20
143.8379843738
 30
0.0
 40
38.75
  0
CIRCLE
  5
135
330
1F
100
AcDbEntity
  8
0
  6
Continuous
 62
     7
370
    25
100
AcDbCircle
 10
205.2765939716
 20
173.9756684255
 30
0.0
 40
2.699999999999989
  0
CIRCLE
  5
136
330
1F
100
AcDbEntity
  8
0
  6
Continuous
 62
     7
370
    25
100
AcDbCircle
 10
240.0765939716
 20
173.9756684255
 30
0.0
 40
2.699999999999989
  0
CIRCLE
  5
137
330
1F
100
AcDbEntity
  8
0
  6
Continuous
 62
     7
370
    25
100
AcDbCircle
 10
257.4765939716
 20
143.8379843738
 30
0.0
 40
2.699999999999989
  0
CIRCLE
  5
138
330
1F
100
AcDbEntity
  8
0
  6
Continuous
 62
     7
370
    25
100
AcDbCircle
 10
240.0765939716
 20
113.7003003221
 30
0.0
 40
2.700000000000017
  0
CIRCLE
  5
139
330
1F
100
AcDbEntity
  8
0
  6
Continuous
 62
     7
370
    25
100
AcDbCircle
 10
205.2765939716
 20
113.7003003221
 30
0.0
 40
2.699999999999989
  0
CIRCLE
  5
13A
330
1F
100
AcDbEntity
  8
0
  6
Continuous
 62
     7
370
    25
100
AcDbCircle
 10
187.8765939716
 20
143.8379843738
 30
0.0
 40
2.700000000000017
  0
LINE
  5
13B
330
1F
100
AcDbEntity
  8
0
  6
Continuous
 62
     7
370
    25
100
AcDbLine
 10
183.4915482052
 20
129.3379843738
 30
0.0
 11
183.4915482052
 21
126.8243201758
 31
0.0
  0
LINE
  5
13C
330
1F
100
AcDbEntity
  8
0
  6
Continuous
 62
     7
370
    25
100
AcDbLine
 10
183.4915482052
 20
129.3379843738
 30
0.0
 11
186.7417571137
 21
129.3379843738
 31
0.0
  0
LINE
  5
13D
330
1F
100
AcDbEntity
  8
0
  6
Continuous
 62
     7
370
    25
100
AcDbLine
 10
187.9582929912
 20
126.6274620971
 30
0.0
 11
183.4915482052
 21
126.8243201758
 31
0.0
  0
LINE
  5
13E
330
1F
100
AcDbEntity
  8
0
  6
Continuous
 62
     7
370
    25
100
AcDbLine
 10
186.710965534
 20
158.2614399613
 30
0.0
 11
183.4915482052
 21
158.2299097511
 31
0.0
  0
LINE
  5
13F
330
1F
100
AcDbEntity
  8
0
  6
Continuous
 62
     7
370
    25
100
AcDbLine
 10
183.4915482052
 20
160.8516485717
 30
0.0
 11
183.4915482052
 21
158.2299097511
 31
0.0
  0
LINE
  5
140
330
1F
100
AcDbEntity
  8
0
  6
Continuous
 62
     7
370
    25
100
AcDbLine
 10
183.4915482052
 20
160.8516485717
 30
0.0
 11
187.9582929912
 21
161.0485066504
 31
0.0
  0
LINE
  5
141
330
1F
100
AcDbEntity
  8
0
  6
Continuous
 62
     7
370
    25
100
AcDbLine
 10
186.263223935
 20
158.1381590506
 30
0.0
 11
186.661770576
 21
158.1381590506
 31
0.0
  0
ELLIPSE
  5
142
330
1F
100
AcDbEntity
  8
0
  6
Continuous
 62
     7
370
    25
100
AcDbEllipse
 10
186.263223935
 20
158.1401375191
 30
0.0
 11
0.5000000000000284
 21
0.0
 31
0.0
210
0.0
220
0.0
230
1.0
 40
0.0039569371
 41
2.92183221775041
 42
4.71238898038469
  0
LINE
  5
143
330
1F
100
AcDbEntity
  8
0
  6
Continuous
 62
     7
370
    25
100
AcDbLine
 10
186.2752490844
 20
158.1494262608
 30
0.0
 11
185.7752490844
 21
158.140568817
 31
0.0
  0
ELLIPSE
  5
144
330
1F
100
AcDbEntity
  8
0
  6
Continuous
 62
     7
370
    25
100
AcDbEllipse
 10
186.763223935
 20
158.1489949629
 30
0.0
 11
0.5000000000000284
 21
0.0
 31
0.0
210
0.0
220
0.0
230
1.0
 40
0.0039569371
 41
1.764765034815498
 42
2.92183221776452
  0
LINE
  5
145
330
1F
100
AcDbEntity
  8
0
  6
Continuous
 62
     7
370
    25
100
AcDbLine
 10
183.9551401325
 20
158.2271901352
 30
0.0
 11
186.6972490977
 21
158.2271901352
 31
0.0
  0
ELLIPSE
  5
146
330
1F
100
AcDbEntity
  8
0
  6
Continuous
 62
     7
370
    25
100
AcDbEllipse
 10
183.9551401325
 20
158.2291686037
 30
0.0
 11
0.5
 21
0.0
 31
0.0
210
0.0
220
0.0
230
1.0
 40
0.0039569371
 41
2.7576202181346
 42
4.71238898038469
  0
LINE
  5
147
330
1F
100
AcDbEntity
  8
0
  6
Continuous
 62
     7
370
    25
100
AcDbLine
 10
183.4551401325
 20
129.3379843738
 30
0.0
 11
183.4915482052
 21
129.3379843738
 31
0.0
  0
ELLIPSE
  5
148
330
1F
100
AcDbEntity
  8
0
  6
Continuous
 62
     7
370
    25
100
AcDbEllipse
 10
183.9551401325
 20
126.827655339
 30
0.0
 11
0.5
 21
0.0
 31
0.0
210
0.0
220
0.0
230
1.0
 40
0.0178062169
 41
3.141592653589786
 42
3.525565089028975
  0
ELLIPSE
  5
149
330
1F
100
AcDbEntity
  8
0
  6
Continuous
 62
     7
370
    25
100
AcDbEllipse
 10
183.9551401325
 20
160.8483134086
 30
0.0
 11
0.5
 21
0.0
 31
0.0
210
0.0
220
0.0
230
1.0
 40
0.0178062169
 41
2.757620218150915
 42
3.141592653589786
  0
LINE
  5
14A
330
1F
100
AcDbEntity
  8
0
  6
Continuous
 62
     8
370
    25
100
AcDbLine
 10
186.2752490844
 20
158.2271901352
 30
0.0
 11
186.2752490844
 21
158.1494262608
 31
0.0
  0
LINE
  5
14B
330
1F
100
AcDbEntity
  8
0
  6
Continuous
 62
     8
370
    25
100
AcDbLine
 10
185.7752490844
 20
158.2271901352
 30
0.0
 11
185.7752490844
 21
158.140568817
 31
0.0
  0
CIRCLE
  5
14C
330
1F
100
AcDbEntity
  8
0
  6
CENTERX2
 62
     7
370
    18
100
AcDbCircle
 10
222.6765939716
 20
143.8379843738
 30
0.0
 40
34.79999999999998
  0
DIMENSION
  5
14D
330
1F
100
AcDbEntity
  8
0
  6
Continuous
 62
     7
370
    18
100
AcDbDimension
  2
_D_10
 10
198.0692779863
 20
119.2306683885
 30
0.0
 11
255.0403629024
 21
176.2017533046
 31
0.0
 70
   163
  1
<>
 71
     1
 42
-1.0
  3
SLDDIMSTYLE2
100
AcDbDiametricDimension
 15
247.2839099569
 25
168.4453003591
 35
0.0
 40
0.0
  0
DIMENSION
  5
15A
330
1F
100
AcDbEntity
  8
0
  6
Continuous
 62
     7
370
    18
100
AcDbDimension
  2
_D_11
 10
271.4265939716
 20
105.0879843738
 30
0.0
 11
271.4265939716
 21
141.8049125789
 31
0.0
 70
   160
  1
%%c<>
 71
     2
 42
-1.0
  3
SLDDIMSTYLE0
100
AcDbAlignedDimension
 13
222.6765939716
 23
182.5879843738
 33
0.0
 14
222.6765939716
 24
105.0879843738
 34
0.0
 50
90.0
100
AcDbRotatedDimension
  0
DIMENSION
  5
165
330
1F
100
AcDbEntity
  8
0
  6
Continuous
 62
     7
370
    18
100
AcDbDimension
  2
_D_12
 10
221.3317426433
 20
144.8778761493
 30
0.0
 11
237.2489291931
 21
132.5701011652
 31
0.0
 70
   163
  1
<>
 71
     1
 42
-1.0
  3
SLDDIMSTYLE2
100
AcDbDiametricDimension
 15
224.0214452999
 25
142.7980925982
 35
0.0
 40
0.0
  0
INSERT
  5
179
330
1F
100
AcDbEntity
  8
0
  6
Continuous
 62
     7
370
     0
100
AcDbBlockReference
  2
SW_CENTERMARKSYMBOL_0
 10
222.6765939716
 20
143.8379843738
 30
0.0
  0
INSERT
  5
185
330
1F
100
AcDbEntity
  8
0
  6
Continuous
 62
     7
370
     0
100
AcDbBlockReference
  2
SW_CENTERMARKSYMBOL_1
 10
205.2765939716
 20
173.9756684255
 30
0.0
  0
INSERT
  5
191
330
1F
100
AcDbEntity
  8
0
  6
Continuous
 62
     7
370
     0
100
AcDbBlockReference
  2
SW_CENTERMARKSYMBOL_2
 10
240.0765939716
 20
173.9756684255
 30
0.0
  0
INSERT
  5
19D
330
1F
100
AcDbEntity
  8
0
  6
Continuous
 62
     7
370
     0
100
AcDbBlockReference
  2
SW_CENTERMARKSYMBOL_3
 10
257.4765939716
 20
143.8379843738
 30
0.0
  0
INSERT
  5
1A9
330
1F
100
AcDbEntity
  8
0
  6
Continuous
 62
     7
370
     0
100
AcDbBlockReference
  2
SW_CENTERMARKSYMBOL_4
 10
240.0765939716
 20
113.7003003221
 30
0.0
  0
INSERT
  5
1B5
330
1F
100
AcDbEntity
  8
0
  6
Continuous
 62
     7
370
     0
100
AcDbBlockReference
  2
SW_CENTERMARKSYMBOL_5
 10
205.2765939716
 20
113.7003003221
 30
0.0
  0
INSERT
  5
1C1
330
1F
100
AcDbEntity
  8
0
  6
Continuous
 62
     7
370
     0
100
AcDbBlockReference
  2
SW_CENTERMARKSYMBOL_6
 10
187.8765939716
 20
143.8379843738
 30
0.0
  0
LINE
  5
1C2
330
1F
100
AcDbEntity
  8
0
  6
Continuous
 62
     7
370
    25
100
AcDbLine
 10
148.3570483666
 20
17.1557609417
 30
0.0
 11
150.3570483666
 21
17.1557609417
 31
0.0
  0
LINE
  5
1C3
330
1F
100
AcDbEntity
  8
0
  6
Continuous
 62
     7
370
    25
100
AcDbLine
 10
150.3570483666
 20
94.6557609417
 30
0.0
 11
148.3570483666
 21
94.6557609417
 31
0.0
  0
LINE
  5
1C4
330
1F
100
AcDbEntity
  8
0
  6
Continuous
 62
     7
370
    25
100
AcDbLine
 10
150.3570483666
 20
45.5557609417
 30
0.0
 11
155.3570483666
 21
45.5557609417
 31
0.0
  0
LINE
  5
1C5
330
1F
100
AcDbEntity
  8
0
  6
Continuous
 62
     7
370
    25
100
AcDbLine
 10
155.3570483666
 20
66.2557609417
 30
0.0
 11
150.3570483666
 21
66.2557609417
 31
0.0
  0
LINE
  5
1C6
330
1F
100
AcDbEntity
  8
0
  6
Continuous
 62
     7
370
    25
100
AcDbLine
 10
155.3570483666
 20
47.4057609417
 30
0.0
 11
167.3570483666
 21
47.4057609417
 31
0.0
  0
LINE
  5
1C7
330
1F
100
AcDbEntity
  8
0
  6
Continuous
 62
     7
370
    25
100
AcDbLine
 10
167.3570483666
 20
64.4057609417
 30
0.0
 11
155.3570483666
 21
64.4057609417
 31
0.0
  0
LINE
  5
1C8
330
1F
100
AcDbEntity
  8
0
  6
Continuous
 62
     7
370
    25
100
AcDbLine
 10
150.3570483666
 20
94.6557609417
 30
0.0
 11
150.3570483666
 21
17.1557609417
 31
0.0
  0
LINE
  5
1C9
330
1F
100
AcDbEntity
  8
0
  6
Continuous
 62
     7
370
    25
100
AcDbLine
 10
148.3570483666
 20
94.6557609417
 30
0.0
 11
148.3570483666
 21
17.1557609417
 31
0.0
  0
LINE
  5
1CA
330
1F
100
AcDbEntity
  8
0
  6
Continuous
 62
     7
370
    25
100
AcDbLine
 10
148.3570483666
 20
42.2557609417
 30
0.0
 11
147.8570483666
 21
42.2557609417
 31
0.0
  0
LINE
  5
1CB
330
1F
100
AcDbEntity
  8
0
  6
Continuous
 62
     7
370
    25
100
AcDbLine
 10
147.8570483666
 20
42.2557609417
 30
0.0
 11
147.8570483666
 21
84.0557609417
 31
0.0
  0
LINE
  5
1CC
330
1F
100
AcDbEntity
  8
0
  6
Continuous
 62
     7
370
    25
100
AcDbLine
 10
147.8570483666
 20
84.0557609417
 30
0.0
 11
148.3570483666
 21
84.0557609417
 31
0.0
  0
LINE
  5
1CD
330
1F
100
AcDbEntity
  8
0
  6
Continuous
 62
     7
370
    25
100
AcDbLine
 10
145.3570483666
 20
42.2557609417
 30
0.0
 11
145.3570483666
 21
84.0557609417
 31
0.0
  0
LINE
  5
1CE
330
1F
100
AcDbEntity
  8
0
  6
Continuous
 62
     7
370
    25
100
AcDbLine
 10
145.3570483666
 20
84.0557609417
 30
0.0
 11
147.8570483666
 21
84.0557609417
 31
0.0
  0
LINE
  5
1CF
330
1F
100
AcDbEntity
  8
0
  6
Continuous
 62
     7
370
    25
100
AcDbLine
 10
147.8570483666
 20
42.2557609417
 30
0.0
 11
145.3570483666
 21
42.2557609417
 31
0.0
  0
LINE
  5
1D0
330
1F
100
AcDbEntity
  8
0
  6
Continuous
 62
     7
370
    25
100
AcDbLine
 10
94.9854759538
 20
80.9845656751
 30
0.0
 11
129.8570483666
 21
42.2557609417
 31
0.0
  0
ARC
  5
1D1
330
1F
100
AcDbEntity
  8
0
  6
Continuous
 62
     7
370
    25
100
AcDbCircle
 10
95.3570483666
 20
81.3191309782
 30
0.0
 40
0.5000000000000284
100
AcDbArc
 50
180.0
 51
222.0
  0
LINE
  5
1D2
330
1F
100
AcDbEntity
  8
0
  6
Continuous
 62
     7
370
    25
100
AcDbLine
 10
94.8570483666
 20
92.3191309782
 30
0.0
 11
94.8570483666
 21
81.3191309782
 31
0.0
  0
ARC
  5
1D3
330
1F
100
AcDbEntity
  8
0
  6
Continuous
 62
     7
370
    25
100
AcDbCircle
 10
95.3570483666
 20
92.3191309782
 30
0.0
 40
0.5000000000000142
100
AcDbArc
 50
77.4086545232
 51
180.0
  0
LINE
  5
1D4
330
1F
100
AcDbEntity
  8
0
  6
Continuous
 62
     7
370
    25
100
AcDbLine
 10
97.7045058777
 20
92.3071058289
 30
0.0
 11
95.46604628
 21
92.8071058289
 31
0.0
  0
ARC
  5
1D5
330
1F
100
AcDbEntity
  8
0
  6
Continuous
 62
     7
370
    25
100
AcDbCircle
 10
97.5955079643
 20
91.8191309782
 30
0.0
 40
0.5000000000000058
100
AcDbArc
 50
335.1884016202
 51
77.4086545232
  0
ARC
  5
1D6
330
1F
100
AcDbEntity
  8
0
  6
Continuous
 62
     7
370
    25
100
AcDbCircle
 10
104.8570483666
 20
88.4620442969
 30
0.0
 40
7.50000000000002
100
AcDbArc
 50
155.1884016202
 51
302.699109788
  0
ARC
  5
1D7
330
1F
100
AcDbEntity
  8
0
  6
Continuous
 62
     7
370
    25
100
AcDbCircle
 10
110.971444897
 20
78.9375673879
 30
0.0
 40
3.818193553793492
100
AcDbArc
 50
90.0
 51
122.699109788
  0
LINE
  5
1D8
330
1F
100
AcDbEntity
  8
0
  6
Continuous
 62
     7
370
    25
100
AcDbLine
 10
113.5388548128
 20
82.7557609417
 30
0.0
 11
110.971444897
 21
82.7557609417
 31
0.0
  0
ARC
  5
1D9
330
1F
100
AcDbEntity
  8
0
  6
Continuous
 62
     7
370
    25
100
AcDbCircle
 10
113.5388548128
 20
86.5739544955
 30
0.0
 40
3.818193553793506
100
AcDbArc
 50
270.0
 51
0.0
  0
LINE
  5
1DA
330
1F
100
AcDbEntity
  8
0
  6
Continuous
 62
     7
370
    25
100
AcDbLine
 10
117.3570483666
 20
94.6272147808
 30
0.0
 11
117.3570483666
 21
86.5739544955
 31
0.0
  0
ARC
  5
1DB
330
1F
100
AcDbEntity
  8
0
  6
Continuous
 62
     7
370
    25
100
AcDbCircle
 10
117.8570483666
 20
94.6272147808
 30
0.0
 40
0.5000000000000127
100
AcDbArc
 50
68.0
 51
180.0
  0
LINE
  5
1DC
330
1F
100
AcDbEntity
  8
0
  6
Continuous
 62
     7
370
    25
100
AcDbLine
 10
145.3570483666
 20
84.0557609417
 30
0.0
 11
118.0443516633
 21
95.0908067081
 31
0.0
  0
CIRCLE
  5
1DD
330
1F
100
AcDbEntity
  8
0
  6
Continuous
 62
     7
370
    25
100
AcDbCircle
 10
138.1570483666
 20
58.4557609417
 30
0.0
 40
2.5
  0
CIRCLE
  5
1DE
330
1F
100
AcDbEntity
  8
0
  6
Continuous
 62
     7
370
    25
100
AcDbCircle
 10
126.1570483666
 20
52.3557609417
 30
0.0
 40
2.500000000000028
  0
ARC
  5
1DF
330
1F
100
AcDbEntity
  8
0
  6
Continuous
 62
     7
370
    25
100
AcDbCircle
 10
139.3570483666
 20
72.2432596934
 30
0.0
 40
1.0
100
AcDbArc
 50
248.0
 51
0.0
  0
LINE
  5
1E0
330
1F
100
AcDbEntity
  8
0
  6
Continuous
 62
     7
370
    25
100
AcDbLine
 10
140.3570483666
 20
72.2432596934
 30
0.0
 11
140.3570483666
 21
80.547977212
 31
0.0
  0
ARC
  5
1E1
330
1F
100
AcDbEntity
  8
0
  6
Continuous
 62
     7
370
    25
100
AcDbCircle
 10
139.3570483666
 20
80.547977212
 30
0.0
 40
1.0
100
AcDbArc
 50
0.0
 51
68.0
  0
LINE
  5
1E2
330
1F
100
AcDbEntity
  8
0
  6
Continuous
 62
     7
370
    25
100
AcDbLine
 10
139.73165496
 20
81.4751610666
 30
0.0
 11
121.73165496
 21
88.7476331316
 31
0.0
  0
ARC
  5
1E3
330
1F
100
AcDbEntity
  8
0
  6
Continuous
 62
     7
370
    25
100
AcDbCircle
 10
121.3570483666
 20
87.820449277
 30
0.0
 40
1.000000000000014
100
AcDbArc
 50
68.0
 51
180.0
  0
LINE
  5
1E4
330
1F
100
AcDbEntity
  8
0
  6
Continuous
 62
     7
370
    25
100
AcDbLine
 10
120.3570483666
 20
87.820449277
 30
0.0
 11
120.3570483666
 21
79.5157317584
 31
0.0
  0
ARC
  5
1E5
330
1F
100
AcDbEntity
  8
0
  6
Continuous
 62
     7
370
    25
100
AcDbCircle
 10
121.3570483666
 20
79.5157317584
 30
0.0
 40
1.000000000000014
100
AcDbArc
 50
180.0
 51
248.0
  0
LINE
  5
1E6
330
1F
100
AcDbEntity
  8
0
  6
Continuous
 62
     7
370
    25
100
AcDbLine
 10
120.9824417732
 20
78.5885479038
 30
0.0
 11
138.9824417732
 21
71.3160758388
 31
0.0
  0
LINE
  5
1E7
330
1F
100
AcDbEntity
  8
0
  6
Continuous
 62
     7
370
    25
100
AcDbLine
 10
129.8570483666
 20
42.2557609417
 30
0.0
 11
145.3570483666
 21
42.2557609417
 31
0.0
  0
LINE
  5
1E8
330
1F
100
AcDbEntity
  8
0
  6
Continuous
 62
     7
370
    25
100
AcDbLine
 10
155.3570483666
 20
66.2557609417
 30
0.0
 11
155.3570483666
 21
45.5557609417
 31
0.0
  0
LINE
  5
1E9
330
1F
100
AcDbEntity
  8
0
  6
Continuous
 62
     7
370
    25
100
AcDbLine
 10
167.3570483666
 20
64.4057609417
 30
0.0
 11
167.3570483666
 21
47.4057609417
 31
0.0
  0
DIMENSION
  5
1EA
330
1F
100
AcDbEntity
  8
0
  6
Continuous
 62
     7
370
    18
100
AcDbDimension
  2
_D_13
 10
138.1570483666
 20
64.259789555
 30
0.0
 11
133.2240596255
 21
64.259789555
 31
0.0
 70
   160
  1
<>
 71
     2
 42
-1.0
  3
SLDDIMSTYLE1
100
AcDbAlignedDimension
 13
126.1570483666
 23
57.3557609417
 33
0.0
 14
138.1570483666
 24
63.4557609417
 34
0.0
100
AcDbRotatedDimension
  0
DIMENSION
  5
1F6
330
1F
100
AcDbEntity
  8
0
  6
Continuous
 62
     7
370
    18
100
AcDbDimension
  2
_D_14
 10
113.6806363764
 20
52.3557609417
 30
0.0
 11
113.6806363764
 21
55.2942231806
 31
0.0
 70
   160
  1
<>
 71
     2
 42
-1.0
  3
SLDDIMSTYLE1
100
AcDbAlignedDimension
 13
133.1570483666
 23
58.4557609417
 33
0.0
 14
121.1570483666
 24
52.3557609417
 34
0.0
 50
90.0
100
AcDbRotatedDimension
  0
DIMENSION
  5
202
330
1F
100
AcDbEntity
  8
0
  6
Continuous
 62
     7
370
    18
100
AcDbDimension
  2
_D_15
 10
127.7313938291
 20
86.3235812803
 30
0.0
 11
126.6412998699
 21
83.6255040529
 31
0.0
 70
   160
  1
<>
 71
     2
 42
-1.0
  3
SLDDIMSTYLE1
100
AcDbAlignedDimension
 13
120.9824417732
 23
78.5885479038
 33
0.0
 14
121.73165496
 24
88.7476331316
 34
0.0
 50
68.0
100
AcDbRotatedDimension
  0
DIMENSION
  5
20C
330
1F
100
AcDbEntity
  8
0
  6
Continuous
 62
     7
370
    18
100
AcDbDimension
  2
_D_16
 10
120.3570483666
 20
96.08595313
 30
0.0
 11
132.2092155076
 21
96.08595313
 31
0.0
 70
   160
  1
<>
 71
     2
 42
-1.0
  3
SLDDIMSTYLE1
100
AcDbAlignedDimension
 13
140.3570483666
 23
80.547977212
 33
0.0
 14
120.3570483666
 24
87.820449277
 34
0.0
100
AcDbRotatedDimension
  0
DIMENSION
  5
218
330
1F
100
AcDbEntity
  8
0
  6
Continuous
 62
     7
370
    18
100
AcDbDimension
  2
_D_17
 10
145.3570483666
 20
84.0557609417
 30
0.0
 11
172.632779186
 21
78.8441154406
 31
0.0
 70
   162
  1
<>
 71
     1
 42
-1.0
  3
SLDDIMSTYLE3
100
AcDb2LineAngularDimension
 13
145.3570483666
 23
84.0557609417
 33
0.0
 14
148.3570483666
 24
84.0557609417
 34
0.0
 15
118.0443516633
 25
95.0908067081
 35
0.0
 16
172.6160194059
 26
78.7571537243
 36
0.0
  0
DIMENSION
  5
225
330
1F
100
AcDbEntity
  8
0
  6
Continuous
 62
     7
370
    18
100
AcDbDimension
  2
_D_18
 10
145.3570483666
 20
84.0557609417
 30
0.0
 11
145.664143226
 21
96.08595313
 31
0.0
 70
   162
  1
<>
 71
     1
 42
-1.0
  3
SLDDIMSTYLE3
100
AcDb2LineAngularDimension
 13
148.3570483666
 23
84.0557609417
 33
0.0
 14
145.3570483666
 24
84.0557609417
 34
0.0
 15
118.0443516633
 25
95.0908067081
 35
0.0
 16
147.6532650267
 26
95.8687715821
 36
0.0
  0
DIMENSION
  5
22E
330
1F
100
AcDbEntity
  8
0
  6
Continuous
 62
     7
370
    18
100
AcDbDimension
  2
_D_19
 10
129.8570483666
 20
42.2557609417
 30
0.0
 11
142.6367173482
 21
36.8362352249
 31
0.0
 70
   162
  1
<>
 71
     1
 42
-1.0
  3
SLDDIMSTYLE3
100
AcDb2LineAngularDimension
 13
145.3570483666
 23
42.2557609417
 33
0.0
 14
129.8570483666
 24
42.2557609417
 34
0.0
 15
94.9854759538
 25
80.9845656751
 35
0.0
 16
142.5382702441
 26
36.6097171971
 36
0.0
  0
DIMENSION
  5
239
330
1F
100
AcDbEntity
  8
0
  6
Continuous
 62
     7
370
    18
100
AcDbDimension
  2
_D_20
 10
145.3570483666
 20
42.2557609417
 30
0.0
 11
133.2240596255
 21
45.3639003514
 31
0.0
 70
   162
  1
<>
 71
     1
 42
-1.0
  3
SLDDIMSTYLE3
100
AcDb2LineAngularDimension
 13
94.9854759538
 23
80.9845656751
 33
0.0
 14
129.8570483666
 24
42.2557609417
 34
0.0
 15
129.8570483666
 25
42.2557609417
 35
0.0
 16
131.7208297915
 26
46.4418825605
 36
0.0
  0
DIMENSION
  5
243
330
1F
100
AcDbEntity
  8
0
  6
Continuous
 62
     7
370
    18
100
AcDbDimension
  2
_D_21
 10
94.8570483666
 20
114.2914165814
 30
0.0
 11
102.2070740384
 21
114.2914165814
 31
0.0
 70
   160
  1
<>
 71
     2
 42
-1.0
  3
SLDDIMSTYLE1
100
AcDbAlignedDimension
 13
117.3570483666
 23
94.6272147808
 33
0.0
 14
94.8570483666
 24
92.3191309782
 34
0.0
100
AcDbRotatedDimension
  0
DIMENSION
  5
24F
330
1F
100
AcDbEntity
  8
0
  6
Continuous
 62
     7
370
    18
100
AcDbDimension
  2
_D_22
 10
104.8570483666
 20
88.4620442969
 30
0.0
 11
105.0440034518
 21
84.5133982571
 31
0.0
 70
   164
  1
<>
 71
     1
 42
-1.0
  3
SLDDIMSTYLE4
100
AcDbRadialDimension
 15
105.2117309231
 25
80.9704356389
 35
0.0
 40
0.0
  0
DIMENSION
  5
258
330
1F
100
AcDbEntity
  8
0
  6
Continuous
 62
     7
370
    18
100
AcDbDimension
  2
_D_23
 10
91.7005479429
 20
92.8071058289
 30
0.0
 11
91.7005479429
 21
78.8441154406
 31
0.0
 70
   160
  1
<>
 71
     2
 42
-1.0
  3
SLDDIMSTYLE5
100
AcDbAlignedDimension
 13
110.971444897
 23
82.7557609417
 33
0.0
 14
95.46604628
 24
92.8071058289
 34
0.0
 50
90.0
100
AcDbRotatedDimension
  0
DIMENSION
  5
264
330
1F
100
AcDbEntity
  8
0
  6
Continuous
 62
     7
370
    18
100
AcDbDimension
  2
_D_24
 10
163.7926624133
 20
94.6557609417
 30
0.0
 11
163.7926624133
 21
89.0829320678
 31
0.0
 70
   160
  1
<>
 71
     2
 42
-1.0
  3
SLDDIMSTYLE1
100
AcDbAlignedDimension
 13
148.3570483666
 23
84.0557609417
 33
0.0
 14
150.3570483666
 24
94.6557609417
 34
0.0
 50
90.0
100
AcDbRotatedDimension
  0
DIMENSION
  5
270
330
1F
100
AcDbEntity
  8
0
  6
Continuous
 62
     7
370
    18
100
AcDbDimension
  2
_D_25
 10
163.0909776359
 20
17.1557609417
 30
0.0
 11
163.0909776359
 21
25.4722894979
 31
0.0
 70
   160
  1
<>
 71
     2
 42
-1.0
  3
SLDDIMSTYLE1
100
AcDbAlignedDimension
 13
148.3570483666
 23
42.2557609417
 33
0.0
 14
150.3570483666
 24
17.1557609417
 34
0.0
 50
90.0
100
AcDbRotatedDimension
  0
INSERT
  5
285
330
1F
100
AcDbEntity
  8
0
  6
Continuous
 62
     7
370
     0
100
AcDbBlockReference
  2
SW_CENTERMARKSYMBOL_7
 10
126.1570483666
 20
52.3557609417
 30
0.0
  0
INSERT
  5
291
330
1F
100
AcDbEntity
  8
0
  6
Continuous
 62
     7
370
     0
100
AcDbBlockReference
  2
SW_CENTERMARKSYMBOL_8
 10
138.1570483666
 20
58.4557609417
 30
0.0
  0
LINE
  5
292
330
1F
100
AcDbEntity
  8
0
  6
Continuous
 62
     7
370
    25
100
AcDbLine
 10
30.9483877532
 20
92.6700807649
 30
0.0
 11
30.9483877532
 21
94.5835898756
 31
0.0
  0
LINE
  5
293
330
1F
100
AcDbEntity
  8
0
  6
Continuous
 62
     7
370
    25
100
AcDbLine
 10
60.3210551519
 20
82.8050707979
 30
0.0
 11
61.7352687142
 21
83.6214789098
 31
0.0
  0
LINE
  5
294
330
1F
100
AcDbEntity
  8
0
  6
Continuous
 62
     7
370
    25
100
AcDbLine
 10
22.9884178246
 20
150.7402657443
 30
0.0
 11
21.5742042622
 21
149.9238576324
 31
0.0
  0
LINE
  5
295
330
1F
100
AcDbEntity
  8
0
  6
Continuous
 62
     7
370
    25
100
AcDbLine
 10
30.9483877532
 20
67.383238581
 30
0.0
 11
30.9483877532
 21
69.143572456
 31
0.0
  0
LINE
  5
296
330
1F
100
AcDbEntity
  8
0
  6
Continuous
 62
     7
370
    25
100
AcDbLine
 10
29.1743018003
 20
135.0013016186
 30
0.0
 11
58.7313652539
 21
117.9383720816
 31
0.0
  0
LINE
  5
297
330
1F
100
AcDbEntity
  8
0
  6
Continuous
 62
     7
370
    25
100
AcDbLine
 10
47.2213278946
 20
101.8875550397
 30
0.0
 11
58.7313652539
 21
117.9383720816
 31
0.0
  0
ELLIPSE
  5
298
330
1F
100
AcDbEntity
  8
0
  6
Continuous
 62
     7
370
    25
100
AcDbEllipse
 10
46.7610754679
 20
101.9976138825
 30
0.0
 11
0.4999787325066477
 21
0.007849915533469696
 31
0.0
210
0.0
220
0.0
230
1.0
 40
0.5874738651
 41
3.917767445776113
 42
5.872536208009775
  0
LINE
  5
299
330
1F
100
AcDbEntity
  8
0
  6
Continuous
 62
     7
370
    25
100
AcDbLine
 10
40.7130071189
 20
105.0736156149
 30
0.0
 11
46.4075220773
 21
101.7862421031
 31
0.0
  0
ELLIPSE
  5
29A
330
1F
100
AcDbEntity
  8
0
  6
Continuous
 62
     7
370
    25
100
AcDbEllipse
 10
38.0131365651
 20
103.4594988841
 30
0.0
 11
3.818031146981447
 21
0.05994499377545992
 31
0.0
210
0.0
220
0.0
230
1.0
 40
0.5874738651
 41
0.7761747921863082
 42
2.346971118981207
  0
LINE
  5
29B
330
1F
100
AcDbEntity
  8
0
  6
Continuous
 62
     7
370
    25
100
AcDbLine
 10
33.4978330498
 20
103.9327449745
 30
0.0
 11
35.3132660113
 21
105.018100979
 31
0.0
  0
ELLIPSE
  5
29C
330
1F
100
AcDbEntity
  8
0
  6
Continuous
 62
     7
370
    25
100
AcDbEllipse
 10
30.797962496
 20
105.4913470694
 30
0.0
 11
3.818031146981447
 21
0.05994499377547413
 31
0.0
210
0.0
220
0.0
230
1.0
 40
0.5874738651
 41
4.917856644298762
 42
5.488563772571021
  0
ELLIPSE
  5
29D
330
1F
100
AcDbEntity
  8
0
  6
Continuous
 62
     7
370
    25
100
AcDbEllipse
 10
33.2092534561
 20
99.0185952159
 30
0.0
 11
7.499680987599674
 21
0.1177487330020881
 31
0.0
210
0.0
220
0.0
230
1.0
 40
0.5874738651
 41
1.776263990708959
 42
4.350811530185744
  0
ELLIPSE
  5
29E
330
1F
100
AcDbEntity
  8
0
  6
Continuous
 62
     7
370
    25
100
AcDbEllipse
 10
30.4483877532
 20
94.5784493851
 30
0.0
 11
0.4999787325066584
 21
0.007849915533455485
 31
0.0
210
0.0
220
0.0
230
1.0
 40
0.5874738651
 41
5.708324208397304
 42
7.492404183775569
  0
LINE
  5
29F
330
1F
100
AcDbEntity
  8
0
  6
Continuous
 62
     7
370
    25
100
AcDbLine
 10
29.6412346725
 20
93.2749378333
 30
0.0
 11
30.8705112428
 21
94.4253342376
 31
0.0
  0
ELLIPSE
  5
2A0
330
1F
100
AcDbEntity
  8
0
  6
Continuous
 62
     7
370
    25
100
AcDbEllipse
 10
29.2191111828
 20
93.4280529807
 30
0.0
 11
0.4999787325066548
 21
0.007849915533483907
 31
0.0
210
0.0
220
0.0
230
1.0
 40
0.5874738651
 41
3.917767445776117
 42
5.708324208397292
  0
LINE
  5
2A1
330
1F
100
AcDbEntity
  8
0
  6
Continuous
 62
     7
370
    25
100
AcDbLine
 10
21.0873831992
 20
97.7069258164
 30
0.0
 11
28.8655577922
 21
93.2166812013
 31
0.0
  0
ELLIPSE
  5
2A2
330
1F
100
AcDbEntity
  8
0
  6
Continuous
 62
     7
370
    25
100
AcDbEllipse
 10
21.4409365898
 20
97.9182975957
 30
0.0
 11
0.4999787325066477
 21
0.007849915533469696
 31
0.0
210
0.0
220
0.0
230
1.0
 40
0.5874738651
 41
3.184729159938621
 42
3.917767445776142
  0
LINE
  5
2A3
330
1F
100
AcDbEntity
  8
0
  6
Continuous
 62
     7
370
    25
100
AcDbLine
 10
18.2141466919
 20
128.4487764584
 30
0.0
 11
20.9416218224
 21
97.8977886654
 31
0.0
  0
LINE
  5
2A4
330
1F
100
AcDbEntity
  8
0
  6
Continuous
 62
     7
370
    25
100
AcDbLine
 10
29.1743018003
 20
135.0013016186
 30
0.0
 11
18.2141466919
 21
128.4487764584
 31
0.0
  0
ELLIPSE
  5
2A5
330
1F
100
AcDbEntity
  8
0
  6
Continuous
 62
     7
370
    25
100
AcDbEllipse
 10
35.538262831
 20
125.34464229
 30
0.0
 11
2.499893662533224
 21
0.0392495776673769
 31
0.0
210
0.0
220
0.0
230
1.0
 40
0.5874738651
 41
0.0
 42
6.283185307179586
  0
ELLIPSE
  5
2A6
330
1F
100
AcDbEntity
  8
0
  6
Continuous
 62
     7
370
    25
100
AcDbEllipse
 10
22.7396300915
 20
122.7617643263
 30
0.0
 11
2.499893662533239
 21
0.03924957766736269
 31
0.0
210
0.0
220
0.0
230
1.0
 40
0.5874738651
 41
0.0
 42
6.283185307179586
  0
ELLIPSE
  5
2A7
330
1F
100
AcDbEntity
  8
0
  6
Continuous
 62
     7
370
    25
100
AcDbEllipse
 10
46.1360248313
 20
120.2238216492
 30
0.0
 11
0.9999574650132812
 21
0.01569983106693939
 31
0.0
210
0.0
220
0.0
230
1.0
 40
0.5874738651
 41
0.7761747921863239
 42
2.730943554419982
  0
LINE
  5
2A8
330
1F
100
AcDbEntity
  8
0
  6
Continuous
 62
     7
370
    25
100
AcDbLine
 10
45.2155199778
 20
120.4439393348
 30
0.0
 11
37.6300122296
 21
109.8659026842
 31
0.0
  0
ELLIPSE
  5
2A9
330
1F
100
AcDbEntity
  8
0
  6
Continuous
 62
     7
370
    25
100
AcDbEllipse
 10
38.5505170831
 20
109.6457849986
 30
0.0
 11
0.9999574650132883
 21
0.01569983106693939
 31
0.0
210
0.0
220
0.0
230
1.0
 40
0.5874738651
 41
2.730943554419988
 42
3.917767445776132
  0
LINE
  5
2AA
330
1F
100
AcDbEntity
  8
0
  6
Continuous
 62
     7
370
    25
100
AcDbLine
 10
37.8434103019
 20
109.2230414399
 30
0.0
 11
43.7157323752
 21
105.8330220656
 31
0.0
  0
ELLIPSE
  5
2AB
330
1F
100
AcDbEntity
  8
0
  6
Continuous
 62
     7
370
    25
100
AcDbEllipse
 10
44.4228391564
 20
106.2557656243
 30
0.0
 11
0.9999574650132883
 21
0.0156998310669536
 31
0.0
210
0.0
220
0.0
230
1.0
 40
0.5874738651
 41
3.91776744577611
 42
5.872536208009731
  0
LINE
  5
2AC
330
1F
100
AcDbEntity
  8
0
  6
Continuous
 62
     7
370
    25
100
AcDbLine
 10
45.3433440098
 20
106.0356479388
 30
0.0
 11
52.928851758
 21
116.6136845893
 31
0.0
  0
ELLIPSE
  5
2AD
330
1F
100
AcDbEntity
  8
0
  6
Continuous
 62
     7
370
    25
100
AcDbEllipse
 10
52.0083469045
 20
116.8338022749
 30
0.0
 11
0.9999574650132883
 21
0.01569983106693939
 31
0.0
210
0.0
220
0.0
230
1.0
 40
0.5874738651
 41
5.872536208009769
 42
7.059360099365908
  0
LINE
  5
2AE
330
1F
100
AcDbEntity
  8
0
  6
Continuous
 62
     7
370
    25
100
AcDbLine
 10
52.7154536857
 20
117.2565458336
 30
0.0
 11
46.8431316125
 21
120.6465652079
 31
0.0
  0
LINE
  5
2AF
330
1F
100
AcDbEntity
  8
0
  6
Continuous
 62
     7
370
    25
100
AcDbLine
 10
29.6412346725
 20
93.2749378333
 30
0.0
 11
29.6412346725
 21
91.389507904
 31
0.0
  0
LINE
  5
2B0
330
1F
100
AcDbEntity
  8
0
  6
Continuous
 62
     7
370
    25
100
AcDbLine
 10
28.8655577922
 20
93.2166812013
 30
0.0
 11
28.8655577922
 21
91.3381381263
 31
0.0
  0
ELLIPSE
  5
2B1
330
1F
100
AcDbEntity
  8
0
  6
Continuous
 62
     7
370
    25
100
AcDbEllipse
 10
29.2191111828
 20
91.5438556546
 30
0.0
 11
0.4999990061374575
 21
0.001720119757735006
 31
0.0
210
0.0
220
0.0
230
1.0
 40
0.5795678193
 41
3.924996963552482
 42
5.715553726173706
  0
LINE
  5
2B2
330
1F
100
AcDbEntity
  8
0
  6
Continuous
 62
     7
370
    25
100
AcDbLine
 10
21.0873831992
 20
97.7069258164
 30
0.0
 11
21.0873831992
 21
95.8283827414
 31
0.0
  0
LINE
  5
2B3
330
1F
100
AcDbEntity
  8
0
  6
Continuous
 62
     7
370
    25
100
AcDbLine
 10
28.8655577922
 20
91.3381381263
 30
0.0
 11
21.0873831992
 21
95.8283827414
 31
0.0
  0
LINE
  5
2B4
330
1F
100
AcDbEntity
  8
0
  6
Continuous
 62
     7
370
    25
100
AcDbLine
 10
30.8705112428
 20
94.4253342376
 30
0.0
 11
30.8705112428
 21
92.5145906831
 31
0.0
  0
LINE
  5
2B5
330
1F
100
AcDbEntity
  8
0
  6
Continuous
 62
     7
370
    25
100
AcDbLine
 10
30.8705112428
 20
92.5145906831
 30
0.0
 11
29.6412346725
 21
91.389507904
 31
0.0
  0
ELLIPSE
  5
2B6
330
1F
100
AcDbEntity
  8
0
  6
Continuous
 62
     7
370
    25
100
AcDbEllipse
 10
30.4483877532
 20
92.6689384337
 30
0.0
 11
0.4999990061374611
 21
0.001720119757720795
 31
0.0
210
0.0
220
0.0
230
1.0
 40
0.5795678193
 41
5.715553726173731
 42
6.281191453744909
  0
LINE
  5
2B7
330
1F
100
AcDbEntity
  8
0
  6
Continuous
 62
     7
370
    25
100
AcDbLine
 10
31.6114117056
 20
103.3077636835
 30
0.0
 11
31.6114117056
 21
101.2703168792
 31
0.0
  0
ELLIPSE
  5
2B8
330
1F
100
AcDbEntity
  8
0
  6
Continuous
 62
     7
370
    25
100
AcDbEllipse
 10
33.2092534561
 20
97.026967119
 30
0.0
 11
7.499985092061736
 21
0.0258017963660393
 31
0.0
210
0.0
220
0.0
230
1.0
 40
0.5795678193
 41
1.783493508485338
 42
2.916923070019785
  0
LINE
  5
2B9
330
1F
100
AcDbEntity
  8
0
  6
Continuous
 62
     7
370
    25
100
AcDbLine
 10
20.9416218224
 20
97.8977886654
 30
0.0
 11
20.9416218224
 21
96.0177932667
 31
0.0
  0
LINE
  5
2BA
330
1F
100
AcDbEntity
  8
0
  6
Continuous
 62
     7
370
    25
100
AcDbLine
 10
18.2141466919
 20
128.4487764584
 30
0.0
 11
18.2141466919
 21
126.1744358067
 31
0.0
  0
LINE
  5
2BB
330
1F
100
AcDbEntity
  8
0
  6
Continuous
 62
     7
370
    25
100
AcDbLine
 10
20.9416218224
 20
96.0177932667
 30
0.0
 11
18.2141466919
 21
126.1744358067
 31
0.0
  0
ELLIPSE
  5
2BC
330
1F
100
AcDbEntity
  8
0
  6
Continuous
 62
     7
370
    25
100
AcDbEllipse
 10
21.4409365898
 20
96.0341002696
 30
0.0
 11
0.4999990061374469
 21
0.001720119757735006
 31
0.0
210
0.0
220
0.0
230
1.0
 40
0.5795678193
 41
3.191958677714985
 42
3.924996963552471
  0
LINE
  5
2BD
330
1F
100
AcDbEntity
  8
0
  6
Continuous
 62
     7
370
    25
100
AcDbLine
 10
47.2213278946
 20
101.8875550397
 30
0.0
 11
47.2213278946
 21
99.7467982946
 31
0.0
  0
LINE
  5
2BE
330
1F
100
AcDbEntity
  8
0
  6
Continuous
 62
     7
370
    25
100
AcDbLine
 10
46.4075220773
 20
101.7862421031
 30
0.0
 11
46.4075220773
 21
99.6532577288
 31
0.0
  0
ELLIPSE
  5
2BF
330
1F
100
AcDbEntity
  8
0
  6
Continuous
 62
     7
370
    25
100
AcDbEllipse
 10
46.7610754679
 20
99.8589752571
 30
0.0
 11
0.4999990061374504
 21
0.001720119757735006
 31
0.0
210
0.0
220
0.0
230
1.0
 40
0.5795678193
 41
3.92499696355256
 42
5.879765725786111
  0
LINE
  5
2C0
330
1F
100
AcDbEntity
  8
0
  6
Continuous
 62
     7
370
    25
100
AcDbLine
 10
58.7313652539
 20
117.9383720816
 30
0.0
 11
58.7313652539
 21
115.0788605434
 31
0.0
  0
ELLIPSE
  5
2C1
330
1F
100
AcDbEntity
  8
0
  6
Continuous
 62
     7
370
    25
100
AcDbEllipse
 10
58.5206567053
 20
114.7922959434
 30
0.0
 11
0.1358059654904906
 21
0.4968550197365431
 31
0.0
210
0.0
220
0.0
230
1.0
 40
0.3242495863
 41
5.412784877475213
 42
6.987538120711064
  0
LINE
  5
2C2
330
1F
100
AcDbEntity
  8
0
  6
Continuous
 62
     7
370
    25
100
AcDbLine
 10
58.5198229514
 20
115.199429244
 30
0.0
 11
47.2213278946
 21
99.7467982946
 31
0.0
  0
LINE
  5
2C3
330
1F
100
AcDbEntity
  8
0
  6
Continuous
 62
     7
370
    25
100
AcDbLine
 10
40.7130071189
 20
105.0736156149
 30
0.0
 11
40.7130071189
 21
102.9406312406
 31
0.0
  0
LINE
  5
2C4
330
1F
100
AcDbEntity
  8
0
  6
Continuous
 62
     7
370
    25
100
AcDbLine
 10
46.4075220773
 20
99.6532577288
 30
0.0
 11
40.7130071189
 21
102.9406312406
 31
0.0
  0
LINE
  5
2C5
330
1F
100
AcDbEntity
  8
0
  6
Continuous
 62
     7
370
    25
100
AcDbLine
 10
33.4978330498
 20
103.9327449745
 30
0.0
 11
33.4978330498
 21
101.871972211
 31
0.0
  0
ELLIPSE
  5
2C6
330
1F
100
AcDbEntity
  8
0
  6
Continuous
 62
     7
370
    25
100
AcDbEllipse
 10
30.797962496
 20
103.4305743059
 30
0.0
 11
3.818185964274334
 21
0.01313550034147681
 31
0.0
210
0.0
220
0.0
230
1.0
 40
0.5795678193
 41
4.925086162075143
 42
5.495793290347398
  0
LINE
  5
2C7
330
1F
100
AcDbEntity
  8
0
  6
Continuous
 62
     7
370
    25
100
AcDbLine
 10
35.3132660113
 20
105.018100979
 30
0.0
 11
35.3132660113
 21
102.9282946549
 31
0.0
  0
ELLIPSE
  5
2C8
330
1F
100
AcDbEntity
  8
0
  6
Continuous
 62
     7
370
    25
100
AcDbEllipse
 10
38.0131365651
 20
101.3696925599
 30
0.0
 11
3.818185964274334
 21
0.01313550034147681
 31
0.0
210
0.0
220
0.0
230
1.0
 40
0.5795678193
 41
0.7834043099626932
 42
2.354200636757592
  0
LINE
  5
2C9
330
1F
100
AcDbEntity
  8
0
  6
Continuous
 62
     7
370
    25
100
AcDbLine
 10
35.3132660113
 20
102.9282946549
 30
0.0
 11
33.4978330498
 21
101.871972211
 31
0.0
  0
ARC
  5
2CA
330
1F
100
AcDbEntity
  8
0
  6
Continuous
 62
     7
370
    25
100
AcDbCircle
 10
46.7516727107
 20
76.6689249783
 30
0.0
 40
0.6959330657230456
100
AcDbArc
 50
240.3621035086
 51
312.443033359
  0
LINE
  5
2CB
330
1F
100
AcDbEntity
  8
0
  6
Continuous
 62
     7
370
    25
100
AcDbLine
 10
40.7130071189
 20
79.3514157135
 30
0.0
 11
46.4075220773
 21
76.0640422017
 31
0.0
  0
ARC
  5
2CC
330
1F
100
AcDbEntity
  8
0
  6
Continuous
 62
     7
370
    25
100
AcDbCircle
 10
38.0131365651
 20
74.1890060579
 30
0.0
 40
5.825785308379857
100
AcDbArc
 50
62.3910402158
 51
117.6089597842
  0
LINE
  5
2CD
330
1F
100
AcDbEntity
  8
0
  6
Continuous
 62
     7
370
    25
100
AcDbLine
 10
33.4978330498
 20
78.3033885727
 30
0.0
 11
35.3132660113
 21
79.3514157135
 31
0.0
  0
ARC
  5
2CE
330
1F
100
AcDbEntity
  8
0
  6
Continuous
 62
     7
370
    25
100
AcDbCircle
 10
31.0561142271
 20
82.7569210889
 30
0.0
 40
5.078970632140819
100
AcDbArc
 50
276.2768490227
 51
298.7344446468
  0
LWPOLYLINE
  5
2CF
330
1F
100
AcDbEntity
  8
0
  6
Continuous
 62
     7
370
    25
100
AcDbPolyline
 90
       24
 70
   128
 43
0.0
 10
30.6209418596
 20
69.4144828712
 10
29.8508366656
 20
69.6068218485
 10
29.1227680378
 20
69.8476172546
 10
28.4458490516
 20
70.1338551063
 10
27.8285525534
 20
70.4619526271
 10
27.2786051081
 20
70.8278030923
 10
26.8028902872
 20
71.2268272319
 10
26.4073625087
 20
71.6540305483
 10
26.0969725071
 20
72.1040658313
 10
25.875605366
 20
72.571300088
 10
25.7460318893
 20
73.0498850497
 10
25.7098739198
 20
73.5338303734
 10
25.7675840389
 20
74.0170786216
 10
25.9184399016
 20
74.4935810821
 10
26.1605532782
 20
74.957373478
 10
26.4908936887
 20
75.4026506217
 10
26.9053263347
 20
75.8238390768
 10
27.3986638536
 20
76.2156669199
 10
27.9647312479
 20
76.5732297277
 10
28.5964431763
 20
76.8920519652
 10
29.285892639
 20
77.1681430042
 10
30.0244499485
 20
77.3980470737
 10
30.8028707448
 20
77.5788865151
 10
31.6114117056
 20
77.7083978006
  0
LWPOLYLINE
  5
2D0
330
1F
100
AcDbEntity
  8
0
  6
Continuous
 62
     7
370
    25
100
AcDbPolyline
 90
        9
 70
   128
 43
0.0
 10
30.8705112428
 20
68.9888725331
 10
30.9193253019
 20
69.0465987299
 10
30.9448149158
 20
69.1091278107
 10
30.9457176431
 20
69.1733628549
 10
30.9219887736
 20
69.2361224496
 10
30.8748035435
 20
69.2942982578
 10
30.8064989276
 20
69.3450089663
 10
30.7204578954
 20
69.3857429914
 10
30.6209418596
 20
69.4144828712
  0
LINE
  5
2D1
330
1F
100
AcDbEntity
  8
0
  6
Continuous
 62
     7
370
    25
100
AcDbLine
 10
29.6412346725
 20
67.8710222183
 30
0.0
 11
30.8705112428
 21
68.9888725331
 31
0.0
  0
ARC
  5
2D2
330
1F
100
AcDbEntity
  8
0
  6
Continuous
 62
     7
370
    25
100
AcDbCircle
 10
29.2138736158
 20
68.4668773111
 30
0.0
 40
0.7332671847837294
100
AcDbArc
 50
241.6394147643
 51
305.6489660642
  0
LINE
  5
2D3
330
1F
100
AcDbEntity
  8
0
  6
Continuous
 62
     7
370
    25
100
AcDbLine
 10
21.0873831992
 20
72.3118647283
 30
0.0
 11
28.8655577922
 21
67.8216201133
 31
0.0
  0
ARC
  5
2D4
330
1F
100
AcDbEntity
  8
0
  6
Continuous
 62
     7
370
    25
100
AcDbCircle
 10
21.1980227055
 20
72.5479010476
 30
0.0
 40
0.2606803490696406
100
AcDbArc
 50
190.3961899089
 51
244.8856663122
  0
LINE
  5
2D5
330
1F
100
AcDbEntity
  8
0
  6
Continuous
 62
     7
370
    25
100
AcDbLine
 10
18.2141466919
 20
102.5448327717
 30
0.0
 11
20.9416218224
 21
72.500860304
 31
0.0
  0
LINE
  5
2D6
330
1F
100
AcDbEntity
  8
0
  6
Continuous
 62
     7
370
    25
100
AcDbLine
 10
20.2452452446
 20
103.7173610082
 30
0.0
 11
18.2141466919
 21
102.5448327717
 31
0.0
  0
LINE
  5
2D7
330
1F
100
AcDbEntity
  8
0
  6
Continuous
 62
     7
370
    25
100
AcDbLine
 10
47.2213278946
 20
76.15536209
 30
0.0
 11
58.5206567053
 21
91.5225015012
 31
0.0
  0
LWPOLYLINE
  5
2D8
330
1F
100
AcDbEntity
  8
0
  6
Continuous
 62
     7
370
    25
100
AcDbPolyline
 90
       34
 70
   128
 43
0.0
 10
33.770495878
 20
98.2995105902
 10
34.1369938254
 20
98.124819724
 10
34.5541372855
 20
97.9933265363
 10
35.0068496071
 20
97.9097835334
 10
35.4787685871
 20
97.8772101771
 10
35.9528378441
 20
97.8967837534
 10
36.41192328
 20
97.9677968223
 10
36.8394323509
 20
98.0876827863
 10
37.2199137652
 20
98.2521086545
 10
37.5396159333
 20
98.4551316475
 10
37.7869839857
 20
98.6894139853
 10
37.9530773967
 20
98.946488094
 10
38.0318931175
 20
99.2170626454
 10
38.0205825426
 20
99.4913583701
 10
37.9195544658
 20
99.7594615062
 10
37.7324603049
 20
100.0116821076
 10
37.4660621303
 20
100.2389042648
 10
37.1299882663
 20
100.4329155769
 10
36.7363852978
 20
100.5867039696
 10
36.2994790616
 20
100.6947111297
 10
35.8350604876
 20
100.753033397
 10
35.359914873
 20
100.7595628529
 10
34.8912152182
 20
100.7140635057
 10
34.44590155
 20
100.6181798205
 10
34.0400686647
 20
100.4753772835
 10
33.68838442
 20
100.2908171503
 10
33.4035596009
 20
100.0711699052
 10
33.1958885185
 20
99.8243741717
 10
33.0728769467
 20
99.5593497908
 10
33.0389708442
 20
99.2856754341
 10
33.095395666
 20
99.0132424058
 10
33.240112072
 20
98.7518971455
 10
33.4678896342
 20
98.5110853517
 10
33.770495878
 20
98.2995105902
  0
LINE
  5
2D9
330
1F
100
AcDbEntity
  8
0
  6
Continuous
 62
     7
370
    25
100
AcDbLine
 10
20.9718631385
 20
95.8911066603
 30
0.0
 11
21.0939898589
 21
95.8251698803
 31
0.0
  0
LWPOLYLINE
  5
2DA
330
1F
100
AcDbEntity
  8
0
  6
Continuous
 62
     7
370
    25
100
AcDbPolyline
 90
        9
 70
   128
 43
0.0
 10
20.7797457139
 20
97.8075950822
 10
20.6049268614
 20
97.6627659753
 10
20.397255779
 20
97.4159702418
 10
20.2742442072
 20
97.1509458609
 10
20.2403381047
 20
96.8772715042
 10
20.2967629265
 20
96.6048384759
 10
20.4414793325
 20
96.3434932156
 10
20.6692568947
 20
96.1026814218
 10
20.9718631385
 20
95.8911066603
  0
ARC
  5
2DB
330
1F
100
AcDbEntity
  8
0
  6
Continuous
 62
     7
370
    25
100
AcDbCircle
 10
46.1548303456
 20
93.3801911884
 30
0.0
 40
1.391866131445988
100
AcDbArc
 50
60.3621035086
 51
132.443033359
  0
LINE
  5
2DC
330
1F
100
AcDbEntity
  8
0
  6
Continuous
 62
     7
370
    25
100
AcDbLine
 10
45.2155199778
 20
94.407316965
 30
0.0
 11
37.6300122296
 21
84.0909913651
 31
0.0
  0
LWPOLYLINE
  5
2DD
330
1F
100
AcDbEntity
  8
0
  6
Continuous
 62
     7
370
    25
100
AcDbPolyline
 90
        9
 70
   128
 43
0.0
 10
37.6300122296
 20
84.0909913651
 10
37.5823694427
 20
84.0099683856
 10
37.5559951877
 20
83.9257700833
 10
37.5514688615
 20
83.8402461496
 10
37.5688898997
 20
83.7552753975
 10
37.607875592
 20
83.6727244879
 10
37.6675694902
 20
83.5944069215
 10
37.7466602225
 20
83.5220432003
 10
37.8434103019
 20
83.45722303
  0
LINE
  5
2DE
330
1F
100
AcDbEntity
  8
0
  6
Continuous
 62
     7
370
    25
100
AcDbLine
 10
37.8434103019
 20
83.45722303
 30
0.0
 11
43.7157323752
 21
80.0672036557
 31
0.0
  0
ARC
  5
2DF
330
1F
100
AcDbEntity
  8
0
  6
Continuous
 62
     7
370
    25
100
AcDbCircle
 10
44.404033642
 20
81.276969209
 30
0.0
 40
1.391866131446035
100
AcDbArc
 50
240.3621035086
 51
312.443033359
  0
LINE
  5
2E0
330
1F
100
AcDbEntity
  8
0
  6
Continuous
 62
     7
370
    25
100
AcDbLine
 10
45.3433440098
 20
80.2498434324
 30
0.0
 11
52.928851758
 21
90.5661690323
 31
0.0
  0
LWPOLYLINE
  5
2E1
330
1F
100
AcDbEntity
  8
0
  6
Continuous
 62
     7
370
    25
100
AcDbPolyline
 90
        9
 70
   128
 43
0.0
 10
52.928851758
 20
90.5661690323
 10
52.9764945449
 20
90.6471920118
 10
53.0028687999
 20
90.7313903141
 10
53.0073951261
 20
90.8169142478
 10
52.989974088
 20
90.9018849999
 10
52.9509883956
 20
90.9844359095
 10
52.8912944974
 20
91.0627534758
 10
52.8122037652
 20
91.1351171971
 10
52.7154536857
 20
91.1999373674
  0
LINE
  5
2E2
330
1F
100
AcDbEntity
  8
0
  6
Continuous
 62
     7
370
    25
100
AcDbLine
 10
52.7154536857
 20
91.1999373674
 30
0.0
 11
46.8431316125
 21
94.5899567417
 31
0.0
  0
LINE
  5
2E3
330
1F
100
AcDbEntity
  8
0
  6
Continuous
 62
     7
370
    25
100
AcDbLine
 10
60.8526855974
 20
119.5712546552
 30
0.0
 11
60.8526855974
 21
90.1757854273
 31
0.0
  0
LINE
  5
2E4
330
1F
100
AcDbEntity
  8
0
  6
Continuous
 62
     7
370
    25
100
AcDbLine
 10
31.2956221438
 20
136.6341841923
 30
0.0
 11
60.8526855974
 21
119.5712546552
 31
0.0
  0
LWPOLYLINE
  5
2E5
330
1F
100
AcDbEntity
  8
0
  6
Continuous
 62
     7
370
    25
100
AcDbPolyline
 90
       90
 70
   128
 43
0.0
 10
13.5472419361
 20
132.1823713818
 10
13.5792393737
 20
133.6925811922
 10
13.675156955
 20
135.1623203826
 10
13.8347706602
 20
136.5881563089
 10
14.057707704
 20
137.9667588652
 10
14.3434474065
 20
139.2949082614
 10
14.6913224095
 20
140.5695025431
 10
15.1005202348
 20
141.7875648362
 10
15.5700851819
 20
142.9462502998
 10
16.0989205602
 20
144.0428527703
 10
16.68579125
 20
145.0748110819
 10
17.3293265877
 20
146.0397150481
 10
18.0280235667
 20
146.9353110909
 10
18.7802503478
 20
147.7595075043
 10
19.5842500706
 20
148.5103793395
 10
20.4381449564
 20
149.1861729004
 10
21.3399406941
 20
149.7853098398
 10
22.2875310981
 20
150.3063908457
 10
23.278703027
 20
150.7481989093
 10
24.3111415528
 20
151.1097021673
 10
25.3824353676
 20
151.3900563121
 10
26.4900824149
 20
151.5886065636
 10
27.6314957339
 20
151.7048891986
 10
28.8040095008
 20
151.7386326335
 10
30.0048852553
 20
151.6897580591
 10
31.2313182966
 20
151.558379624
 10
32.4804442333
 20
151.3448041687
 10
33.7493456741
 20
151.0495305087
 10
35.0350590407
 20
150.6732482692
 10
36.3345814901
 20
150.2168362749
 10
37.6448779274
 20
149.681360497
 10
38.9628880945
 20
149.0680715641
 10
40.2855337176
 20
148.3784018409
 10
41.6097256965
 20
147.613962083
 10
42.9323713196
 20
146.7765376749
 10
44.2503814867
 20
145.8680844601
 10
45.5606779239
 20
144.8907241731
 10
46.8602003733
 20
143.8467394843
 10
48.14591374
 20
142.7385686681
 10
49.4148151807
 20
141.5687999089
 10
50.6639411175
 20
140.3401652559
 10
51.8903741587
 20
139.0555342421
 10
53.0912499133
 20
137.717907183
 10
54.2637636801
 20
136.3304081683
 10
55.4051769991
 20
134.8962777664
 10
56.5128240465
 20
133.4188654553
 10
57.5841178613
 20
131.9016217999
 10
58.6165563871
 20
130.348090393
 10
59.607728316
 20
128.7618995792
 10
60.5553187199
 20
127.1467539807
 10
61.4571144577
 20
125.5064258449
 10
62.3110093435
 20
123.844746234
 10
63.1150090662
 20
122.1655960779
 10
63.8672358474
 20
120.4728971096
 10
64.5659328264
 20
118.7706027059
 10
65.2094681641
 20
117.0626886542
 10
65.7963388539
 20
115.353143867
 10
66.3251742321
 20
113.6459610653
 10
66.7947391792
 20
111.9451274537
 10
67.2039370045
 20
110.2546154079
 10
67.5518120076
 20
108.5783731971
 10
67.8375517101
 20
106.9203157626
 10
68.0604887539
 20
105.2843155744
 10
68.220102459
 20
103.6741935868
 10
68.3160200404
 20
102.0937103142
 10
68.348017478
 20
100.5465570486
 10
68.3160200404
 20
99.0363472382
 10
68.220102459
 20
97.5666080478
 10
68.0604887539
 20
96.1407721215
 10
67.8375517101
 20
94.7621695652
 10
67.5518120076
 20
93.434020169
 10
67.2039370045
 20
92.1594258873
 10
66.7947391792
 20
90.9413635942
 10
66.3251742321
 20
89.7826781306
 10
65.7963388539
 20
88.6860756601
 10
65.2094681641
 20
87.6541173485
 10
64.5659328264
 20
86.6892133823
 10
63.8672358474
 20
85.7936173395
 10
63.1150090662
 20
84.969420926
 10
62.3110093435
 20
84.2185490909
 10
61.4571144577
 20
83.54275553
 10
60.5553187199
 20
82.9436185906
 10
59.607728316
 20
82.4225375847
 10
58.6165563871
 20
81.9807295211
 10
57.5841178613
 20
81.6192262631
 10
56.5128240465
 20
81.3388721183
 10
55.4051769991
 20
81.1403218667
 10
54.2637636801
 20
81.0240392318
 10
53.0912499133
 20
80.9902957968
 10
52.4301261807
 20
81.0071313134
  0
ARC
  5
2E6
330
1F
100
AcDbEntity
  8
0
  6
Continuous
 62
     7
370
    25
100
AcDbCircle
 10
56.9848518236
 20
112.4063442916
 30
0.0
 40
31.9964310061658
100
AcDbArc
 50
238.1036919019
 51
251.26462721
  0
ARC
  5
2E7
330
1F
100
AcDbEntity
  8
0
  6
Continuous
 62
     7
370
    25
100
AcDbCircle
 10
67.5006773119
 20
133.7091589583
 30
0.0
 40
53.97503375787514
100
AcDbArc
 50
181.6209374676
 51
207.9480292047
  0
LWPOLYLINE
  5
2E8
330
1F
100
AcDbEntity
  8
0
  6
Continuous
 62
     7
370
    25
100
AcDbPolyline
 90
       35
 70
   128
 43
0.0
 10
51.3420993905
 20
134.9725135972
 10
51.3746069495
 20
135.3588526301
 10
51.4710226206
 20
135.6945029218
 10
51.6280630839
 20
135.9680343043
 10
51.8403805145
 20
136.1701319943
 10
52.1007446972
 20
136.2939137974
 10
52.4002892419
 20
136.3351644728
 10
52.7288135184
 20
136.2924792783
 10
53.0751300265
 20
136.1673118068
 10
53.4274453729
 20
135.9639244865
 10
53.773761881
 20
135.6892434287
 10
54.1022861575
 20
135.3526225674
 10
54.4018307022
 20
134.9655251223
 10
54.6621948848
 20
134.5411332325
 10
54.8745123155
 20
134.0938990549
 10
55.0315527787
 20
133.639052613
 10
55.1279684499
 20
133.1920831569
 10
55.1604760089
 20
132.7682116953
 10
55.1279684499
 20
132.3818726624
 10
55.0315527787
 20
132.0462223707
 10
54.8745123155
 20
131.7726909883
 10
54.6621948848
 20
131.5705932982
 10
54.4018307022
 20
131.4468114951
 10
54.1022861575
 20
131.4055608197
 10
53.773761881
 20
131.4482460143
 10
53.4274453729
 20
131.5734134858
 10
53.0751300265
 20
131.776800806
 10
52.7288135184
 20
132.0514818638
 10
52.4002892419
 20
132.3881027251
 10
52.1007446972
 20
132.7752001702
 10
51.8403805145
 20
133.19959206
 10
51.6280630839
 20
133.6468262376
 10
51.4710226206
 20
134.1016726795
 10
51.3746069495
 20
134.5486421356
 10
51.3420993905
 20
134.9725135972
  0
LWPOLYLINE
  5
2E9
330
1F
100
AcDbEntity
  8
0
  6
Continuous
 62
     7
370
    25
100
AcDbPolyline
 90
       35
 70
   128
 43
0.0
 10
26.7347834052
 20
149.1780147429
 10
26.7672909642
 20
149.5643537758
 10
26.8637066353
 20
149.9000040675
 10
27.0207470986
 20
150.17353545
 10
27.2330645292
 20
150.37563314
 10
27.4934287119
 20
150.4994149431
 10
27.7929732566
 20
150.5406656186
 10
28.1214975331
 20
150.497980424
 10
28.4678140412
 20
150.3728129525
 10
28.8201293876
 20
150.1694256322
 10
29.1664458957
 20
149.8947445745
 10
29.4949701722
 20
149.5581237132
 10
29.7945147169
 20
149.171026268
 10
30.0548788995
 20
148.7466343782
 10
30.2671963302
 20
148.2994002006
 10
30.4242367934
 20
147.8445537588
 10
30.5206524646
 20
147.3975843026
 10
30.5531600236
 20
146.973712841
 10
30.5206524646
 20
146.5873738081
 10
30.4242367934
 20
146.2517235164
 10
30.2671963302
 20
145.978192134
 10
30.0548788995
 20
145.776094444
 10
29.7945147169
 20
145.6523126408
 10
29.4949701722
 20
145.6110619654
 10
29.1664458957
 20
145.65374716
 10
28.8201293876
 20
145.7789146315
 10
28.4678140412
 20
145.9823019517
 10
28.1214975331
 20
146.2569830095
 10
27.7929732566
 20
146.5936038708
 10
27.4934287119
 20
146.980701316
 10
27.2330645292
 20
147.4050932057
 10
27.0207470986
 20
147.8523273833
 10
26.8637066353
 20
148.3071738252
 10
26.7672909642
 20
148.7541432813
 10
26.7347834052
 20
149.1780147429
  0
LWPOLYLINE
  5
2EA
330
1F
100
AcDbEntity
  8
0
  6
Continuous
 62
     7
370
    25
100
AcDbPolyline
 90
       35
 70
   128
 43
0.0
 10
14.4311254125
 20
131.6721163119
 10
14.4636329716
 20
132.0584553447
 10
14.5600486427
 20
132.3941056365
 10
14.7170891059
 20
132.6676370189
 10
14.9294065366
 20
132.8697347089
 10
15.1897707192
 20
132.9935165121
 10
15.4893152639
 20
133.0347671875
 10
15.8178395404
 20
132.9920819929
 10
16.1641560485
 20
132.8669145214
 10
16.5164713949
 20
132.6635272012
 10
16.862787903
 20
132.3888461434
 10
17.1913121796
 20
132.0522252821
 10
17.4908567242
 20
131.6651278369
 10
17.7512209069
 20
131.2407359472
 10
17.9635383376
 20
130.7935017696
 10
18.1205788008
 20
130.3386553277
 10
18.2169944719
 20
129.8916858716
 10
18.2495020309
 20
129.4678144099
 10
18.2169944719
 20
129.0814753771
 10
18.1205788008
 20
128.7458250854
 10
17.9635383376
 20
128.4722937029
 10
17.7512209069
 20
128.2701960129
 10
17.4908567242
 20
128.1464142098
 10
17.1913121796
 20
128.1051635343
 10
16.862787903
 20
128.1478487289
 10
16.5164713949
 20
128.2730162004
 10
16.1641560485
 20
128.4764035206
 10
15.8178395404
 20
128.7510845784
 10
15.4893152639
 20
129.0877054397
 10
15.1897707192
 20
129.4748028849
 10
14.9294065366
 20
129.8991947747
 10
14.7170891059
 20
130.3464289522
 10
14.5600486427
 20
130.8012753941
 10
14.4636329716
 20
131.2482448502
 10
14.4311254125
 20
131.6721163119
  0
LWPOLYLINE
  5
2EB
330
1F
100
AcDbEntity
  8
0
  6
Continuous
 62
     7
370
    25
100
AcDbPolyline
 90
       12
 70
   128
 43
0.0
 10
55.0246158858
 20
84.4461356362
 10
55.0315527787
 20
84.4217546052
 10
55.1279684499
 20
83.9747851491
 10
55.1604760089
 20
83.5509136874
 10
55.1279684499
 20
83.1645746546
 10
55.0315527787
 20
82.8289243629
 10
54.8745123155
 20
82.5553929804
 10
54.6621948848
 20
82.3532952904
 10
54.4018307022
 20
82.2295134872
 10
54.1022861575
 20
82.1882628118
 10
53.773761881
 20
82.2309480064
 10
53.4425386227
 20
82.3490872122
  0
LWPOLYLINE
  5
2EC
330
1F
100
AcDbEntity
  8
0
  6
Continuous
 62
     7
370
    25
100
AcDbPolyline
 90
       35
 70
   128
 43
0.0
 10
63.6457573831
 20
103.2611140204
 10
63.6782649421
 20
103.6474530533
 10
63.7746806133
 20
103.983103345
 10
63.9317210765
 20
104.2566347275
 10
64.1440385072
 20
104.4587324175
 10
64.4044026898
 20
104.5825142206
 10
64.7039472345
 20
104.623764896
 10
65.032471511
 20
104.5810797015
 10
65.3787880191
 20
104.45591223
 10
65.7311033655
 20
104.2525249097
 10
66.0774198736
 20
103.977843852
 10
66.4059441501
 20
103.6412229906
 10
66.7054886948
 20
103.2541255455
 10
66.9658528775
 20
102.8297336557
 10
67.1781703081
 20
102.3824994781
 10
67.3352107714
 20
101.9276530363
 10
67.4316264425
 20
101.4806835801
 10
67.4641340015
 20
101.0568121185
 10
67.4316264425
 20
100.6704730856
 10
67.3352107714
 20
100.3348227939
 10
67.1781703081
 20
100.0612914115
 10
66.9658528775
 20
99.8591937215
 10
66.7054886948
 20
99.7354119183
 10
66.4059441501
 20
99.6941612429
 10
66.0774198736
 20
99.7368464375
 10
65.7311033655
 20
99.862013909
 10
65.3787880191
 20
100.0654012292
 10
65.032471511
 20
100.340082287
 10
64.7039472345
 20
100.6767031483
 10
64.4044026898
 20
101.0638005935
 10
64.1440385072
 20
101.4881924832
 10
63.9317210765
 20
101.9354266608
 10
63.7746806133
 20
102.3902731027
 10
63.6782649421
 20
102.8372425588
 10
63.6457573831
 20
103.2611140204
  0
LWPOLYLINE
  5
2ED
330
1F
100
AcDbEntity
  8
0
  6
Continuous
 62
     7
370
    25
100
AcDbPolyline
 90
       67
 70
   128
 43
0.0
 10
22.9884178246
 20
150.7402657443
 10
23.7017446605
 20
151.1227989575
 10
24.6929165893
 20
151.5646070211
 10
25.7253551152
 20
151.9261102791
 10
26.7966489299
 20
152.2064644239
 10
27.9042959773
 20
152.4050146755
 10
29.0457092963
 20
152.5212973104
 10
30.2182230632
 20
152.5550407454
 10
31.4190988177
 20
152.5061661709
 10
32.645531859
 20
152.3747877358
 10
33.8946577957
 20
152.1612122806
 10
35.1635592365
 20
151.8659386205
 10
36.4492726031
 20
151.4896563811
 10
37.7487950525
 20
151.0332443867
 10
39.0590914898
 20
150.4977686088
 10
40.3771016569
 20
149.8844796759
 10
41.6997472799
 20
149.1948099528
 10
43.0239392589
 20
148.4303701949
 10
44.3465848819
 20
147.5929457868
 10
45.664595049
 20
146.6844925719
 10
46.9748914863
 20
145.707132285
 10
48.2744139357
 20
144.6631475961
 10
49.5601273023
 20
143.5549767799
 10
50.8290287431
 20
142.3852080207
 10
52.0781546799
 20
141.1565733677
 10
53.3045877211
 20
139.871942354
 10
54.5054634756
 20
138.5343152948
 10
55.6779772425
 20
137.1468162801
 10
56.8193905615
 20
135.7126858782
 10
57.9270376089
 20
134.2352735671
 10
58.9983314236
 20
132.7180299117
 10
60.0307699495
 20
131.1644985048
 10
61.0219418783
 20
129.578307691
 10
61.9695322823
 20
127.9631620925
 10
62.87132802
 20
126.3228339567
 10
63.7252229058
 20
124.6611543459
 10
64.5292226286
 20
122.9820041898
 10
65.2814494097
 20
121.2893052214
 10
65.9801463887
 20
119.5870108177
 10
66.6236817265
 20
117.879096766
 10
67.2105524163
 20
116.1695519788
 10
67.7393877945
 20
114.4623691771
 10
68.2089527416
 20
112.7615355655
 10
68.6181505669
 20
111.0710235197
 10
68.9660255699
 20
109.3947813089
 10
69.2517652725
 20
107.7367238744
 10
69.4747023162
 20
106.1007236862
 10
69.6343160214
 20
104.4906016986
 10
69.7302336028
 20
102.910118426
 10
69.7622310404
 20
101.3629651604
 10
69.7302336028
 20
99.85275535
 10
69.6343160214
 20
98.3830161596
 10
69.4747023162
 20
96.9571802333
 10
69.2517652725
 20
95.578577677
 10
68.9660255699
 20
94.2504282808
 10
68.6181505669
 20
92.9758339991
 10
68.2089527416
 20
91.757771706
 10
67.7393877945
 20
90.5990862424
 10
67.2105524163
 20
89.5024837719
 10
66.6236817265
 20
88.4705254603
 10
65.9801463887
 20
87.5056214941
 10
65.2814494097
 20
86.6100254513
 10
64.5292226286
 20
85.7858290379
 10
63.7252229058
 20
85.0349572027
 10
62.87132802
 20
84.3591636419
 10
61.9695322823
 20
83.7600267024
 10
61.7352687142
 20
83.6214789098
  0
LINE
  5
2EE
330
1F
100
AcDbEntity
  8
0
  6
Continuous
 62
     7
370
    25
100
AcDbLine
 10
28.8655577922
 20
67.8216201133
 30
0.0
 11
28.8655577922
 21
66.1062425699
 31
0.0
  0
LINE
  5
2EF
330
1F
100
AcDbEntity
  8
0
  6
Continuous
 62
     7
370
    25
100
AcDbLine
 10
29.6412346725
 20
67.8710222183
 30
0.0
 11
29.6412346725
 21
66.1467901481
 31
0.0
  0
ELLIPSE
  5
2F0
330
1F
100
AcDbEntity
  8
0
  6
Continuous
 62
     7
370
    25
100
AcDbEllipse
 10
29.2191111828
 20
66.3030748465
 30
0.0
 11
0.499981555872271
 21
-0.007575381098803292
 31
0.0
210
0.0
220
0.0
230
1.0
 40
0.5669184219
 41
3.935580168798821
 42
5.726136931419949
  0
LINE
  5
2F1
330
1F
100
AcDbEntity
  8
0
  6
Continuous
 62
     7
370
    25
100
AcDbLine
 10
21.0873831992
 20
72.3118647283
 30
0.0
 11
21.0873831992
 21
70.5964871849
 31
0.0
  0
LINE
  5
2F2
330
1F
100
AcDbEntity
  8
0
  6
Continuous
 62
     7
370
    25
100
AcDbLine
 10
28.8655577922
 20
66.1062425699
 30
0.0
 11
21.0873831992
 21
70.5964871849
 31
0.0
  0
LINE
  5
2F3
330
1F
100
AcDbEntity
  8
0
  6
Continuous
 62
     7
370
    25
100
AcDbLine
 10
30.8705112428
 20
68.9888725331
 30
0.0
 11
30.8705112428
 21
67.2320943732
 31
0.0
  0
LINE
  5
2F4
330
1F
100
AcDbEntity
  8
0
  6
Continuous
 62
     7
370
    25
100
AcDbLine
 10
30.8705112428
 20
67.2320943732
 30
0.0
 11
29.6412346725
 21
66.1467901481
 31
0.0
  0
ELLIPSE
  5
2F5
330
1F
100
AcDbEntity
  8
0
  6
Continuous
 62
     7
370
    25
100
AcDbEllipse
 10
30.4483877532
 20
67.3883790716
 30
0.0
 11
0.499981555872271
 21
-0.007575381098803292
 31
0.0
210
0.0
220
0.0
230
1.0
 40
0.5669184219
 41
5.726136931419957
 42
6.291774658991125
  0
LINE
  5
2F6
330
1F
100
AcDbEntity
  8
0
  6
Continuous
 62
     7
370
    25
100
AcDbLine
 10
31.6114117056
 20
77.7083978006
 30
0.0
 11
31.6114117056
 21
75.7887154623
 31
0.0
  0
ELLIPSE
  5
2F7
330
1F
100
AcDbEntity
  8
0
  6
Continuous
 62
     7
370
    25
100
AcDbEllipse
 10
33.2092534561
 20
71.6173665282
 30
0.0
 11
7.49972333808391
 21
-0.1136307164818646
 31
0.0
210
0.0
220
0.0
230
1.0
 40
0.5669184219
 41
1.794076713731594
 42
2.940622097934272
  0
LINE
  5
2F8
330
1F
100
AcDbEntity
  8
0
  6
Continuous
 62
     7
370
    25
100
AcDbLine
 10
45.2155199778
 20
120.4439393348
 30
0.0
 11
45.2155199778
 21
118.0664041518
 31
0.0
  0
LINE
  5
2F9
330
1F
100
AcDbEntity
  8
0
  6
Continuous
 62
     7
370
    25
100
AcDbLine
 10
38.4805765389
 20
108.8552132007
 30
0.0
 11
45.2155199778
 21
118.0664041518
 31
0.0
  0
LINE
  5
2FA
330
1F
100
AcDbEntity
  8
0
  6
Continuous
 62
     7
370
    25
100
AcDbLine
 10
20.9416218224
 20
72.500860304
 30
0.0
 11
20.9416218224
 21
70.7836154874
 31
0.0
  0
ELLIPSE
  5
2FB
330
1F
100
AcDbEntity
  8
0
  6
Continuous
 62
     7
370
    25
100
AcDbEllipse
 10
21.4409365898
 20
70.7933194615
 30
0.0
 11
0.4999815558722603
 21
-0.007575381098789082
 31
0.0
210
0.0
220
0.0
230
1.0
 40
0.5669184219
 41
3.202541882961277
 42
3.935580168798777
  0
LINE
  5
2FC
330
1F
100
AcDbEntity
  8
0
  6
Continuous
 62
     7
370
    25
100
AcDbLine
 10
18.2141466919
 20
102.5448327717
 30
0.0
 11
18.2141466919
 21
100.3205726297
 31
0.0
  0
LINE
  5
2FD
330
1F
100
AcDbEntity
  8
0
  6
Continuous
 62
     7
370
    25
100
AcDbLine
 10
20.9416218224
 20
70.7836154874
 30
0.0
 11
18.2141466919
 21
100.3205726297
 31
0.0
  0
LINE
  5
2FE
330
1F
100
AcDbEntity
  8
0
  6
Continuous
 62
     7
370
    25
100
AcDbLine
 10
46.4075220773
 20
76.0640422017
 30
0.0
 11
46.4075220773
 21
74.0215258449
 31
0.0
  0
LINE
  5
2FF
330
1F
100
AcDbEntity
  8
0
  6
Continuous
 62
     7
370
    25
100
AcDbLine
 10
47.2213278946
 20
76.15536209
 30
0.0
 11
47.2213278946
 21
74.102852685
 31
0.0
  0
ELLIPSE
  5
300
330
1F
100
AcDbEntity
  8
0
  6
Continuous
 62
     7
370
    25
100
AcDbEllipse
 10
46.7610754679
 20
74.2183581215
 30
0.0
 11
0.4999815558722674
 21
-0.007575381098789081
 31
0.0
210
0.0
220
0.0
230
1.0
 40
0.5669184219
 41
3.935580168798789
 42
5.890348931032372
  0
ELLIPSE
  5
301
330
1F
100
AcDbEntity
  8
0
  6
Continuous
 62
     7
370
    25
100
AcDbEllipse
 10
58.5206567053
 20
91.9307719072
 30
0.0
 11
0.1358059654904836
 21
0.496855019736529
 31
0.0
210
0.0
220
0.0
230
1.0
 40
0.3242495863
 41
3.841988550680344
 42
5.412784877475186
  0
LINE
  5
302
330
1F
100
AcDbEntity
  8
0
  6
Continuous
 62
     7
370
    25
100
AcDbLine
 10
58.7313652539
 20
92.2173365072
 30
0.0
 11
58.7313652539
 21
89.3594436656
 31
0.0
  0
LINE
  5
303
330
1F
100
AcDbEntity
  8
0
  6
Continuous
 62
     7
370
    25
100
AcDbLine
 10
58.7313652539
 20
89.3594436656
 30
0.0
 11
47.2213278946
 21
74.102852685
 31
0.0
  0
LINE
  5
304
330
1F
100
AcDbEntity
  8
0
  6
Continuous
 62
     7
370
    25
100
AcDbLine
 10
40.7130071189
 20
79.3514157135
 30
0.0
 11
40.7130071189
 21
77.3088993567
 31
0.0
  0
LINE
  5
305
330
1F
100
AcDbEntity
  8
0
  6
Continuous
 62
     7
370
    25
100
AcDbLine
 10
46.4075220773
 20
74.0215258449
 30
0.0
 11
40.7130071189
 21
77.3088993567
 31
0.0
  0
LWPOLYLINE
  5
306
330
1F
100
AcDbEntity
  8
0
  6
Continuous
 62
     7
370
    25
100
AcDbPolyline
 90
        3
 70
   128
 43
0.0
 10
52.7563129528
 20
135.788921709
 10
52.7888205119
 20
136.1752607419
 10
52.8084526153
 20
136.2705402736
  0
ARC
  5
307
330
1F
100
AcDbEntity
  8
0
  6
Continuous
 62
     7
370
    25
100
AcDbCircle
 10
56.6505934726
 20
135.8632377307
 30
0.0
 40
3.894989555544091
100
AcDbArc
 50
181.0932642368
 51
246.6741868079
  0
LINE
  5
308
330
1F
100
AcDbEntity
  8
0
  6
Continuous
 62
     7
370
    25
100
AcDbLine
 10
33.4978330498
 20
78.3033885727
 30
0.0
 11
33.4978330498
 21
76.3537157155
 31
0.0
  0
ELLIPSE
  5
309
330
1F
100
AcDbEntity
  8
0
  6
Continuous
 62
     7
370
    25
100
AcDbEllipse
 10
30.797962496
 20
77.9123178104
 30
0.0
 11
3.818052707294228
 21
-0.05784854255786342
 31
0.0
210
0.0
220
0.0
230
1.0
 40
0.5669184219
 41
4.935669367321398
 42
5.506376495593654
  0
LINE
  5
30A
330
1F
100
AcDbEntity
  8
0
  6
Continuous
 62
     7
370
    25
100
AcDbLine
 10
35.3132660113
 20
79.3514157135
 30
0.0
 11
35.3132660113
 21
77.3644139926
 31
0.0
  0
ELLIPSE
  5
30B
330
1F
100
AcDbEntity
  8
0
  6
Continuous
 62
     7
370
    25
100
AcDbEllipse
 10
38.0131365651
 20
75.8058118977
 30
0.0
 11
3.818052707294221
 21
-0.05784854255784921
 31
0.0
210
0.0
220
0.0
230
1.0
 40
0.5669184219
 41
0.7939875152089482
 42
2.364783842003839
  0
LINE
  5
30C
330
1F
100
AcDbEntity
  8
0
  6
Continuous
 62
     7
370
    25
100
AcDbLine
 10
46.8431316125
 20
120.6465652079
 30
0.0
 11
46.8431316125
 21
118.2534852832
 31
0.0
  0
LINE
  5
30D
330
1F
100
AcDbEntity
  8
0
  6
Continuous
 62
     7
370
    25
100
AcDbLine
 10
46.8431316125
 20
118.2534852832
 30
0.0
 11
51.9787469469
 21
115.2887576567
 31
0.0
  0
LINE
  5
30E
330
1F
100
AcDbEntity
  8
0
  6
Continuous
 62
     7
370
    25
100
AcDbLine
 10
35.3132660113
 20
77.3644139926
 30
0.0
 11
33.4978330498
 21
76.3537157155
 31
0.0
  0
LINE
  5
30F
330
1F
100
AcDbEntity
  8
0
  6
Continuous
 62
     7
370
    25
100
AcDbLine
 10
58.7313652539
 20
115.0788605434
 30
0.0
 11
58.7313652539
 21
92.2173365072
 31
0.0
  0
LINE
  5
310
330
1F
100
AcDbEntity
  8
0
  6
Continuous
 62
     7
370
    25
100
AcDbLine
 10
58.7313652539
 20
117.9383720816
 30
0.0
 11
60.4991322068
 21
118.9588822213
 31
0.0
  0
ARC
  5
311
330
1F
100
AcDbEntity
  8
0
  6
Continuous
 62
     7
370
    25
100
AcDbCircle
 10
60.0850775467
 20
119.6061850814
 30
0.0
 40
0.768402403786071
100
AcDbArc
 50
302.60547834
 51
357.3945215143
  0
ARC
  5
312
330
1F
100
AcDbEntity
  8
0
  6
Continuous
 62
     7
370
    25
100
AcDbCircle
 10
60.6371484137
 20
90.2107490258
 30
0.0
 40
0.2183545987142486
100
AcDbArc
 50
350.7859630095
 51
129.2032852357
  0
LINE
  5
313
330
1F
100
AcDbEntity
  8
0
  6
Continuous
 62
     7
370
    25
100
AcDbLine
 10
58.7313652539
 20
89.3594436656
 30
0.0
 11
60.4991322068
 21
90.3799538053
 31
0.0
  0
LINE
  5
314
330
1F
100
AcDbEntity
  8
0
  6
Continuous
 62
     7
370
    25
100
AcDbLine
 10
30.9420687532
 20
136.0218117584
 30
0.0
 11
29.1743018003
 21
135.0013016186
 31
0.0
  0
LINE
  5
315
330
1F
100
AcDbEntity
  8
0
  6
Continuous
 62
     7
370
    25
100
AcDbLine
 10
60.4991322068
 20
118.9588822213
 30
0.0
 11
30.9420687532
 21
136.0218117584
 31
0.0
  0
ARC
  5
316
330
1F
100
AcDbEntity
  8
0
  6
Continuous
 62
     7
370
    25
100
AcDbCircle
 10
30.5280140932
 20
136.6691146185
 30
0.0
 40
0.7684024037859923
100
AcDbArc
 50
302.60547834
 51
357.3945215143
  0
ELLIPSE
  5
317
330
1F
100
AcDbEntity
  8
0
  6
Continuous
 62
     7
370
    25
100
AcDbEllipse
 10
46.1360248313
 20
117.8420502267
 30
0.0
 11
0.9999980122748866
 21
0.003440239515484222
 31
0.0
210
0.0
220
0.0
230
1.0
 40
0.5795678193
 41
0.7834043099626973
 42
2.738173072196288
  0
ELLIPSE
  5
318
330
1F
100
AcDbEntity
  8
0
  6
Continuous
 62
     7
370
    25
100
AcDbEllipse
 10
22.7396300915
 20
120.5292651328
 30
0.0
 11
2.499995030687255
 21
0.008600598788675029
 31
0.0
210
0.0
220
0.0
230
1.0
 40
0.5795678193
 41
0.8760526456587111
 42
2.275254489591986
  0
LWPOLYLINE
  5
319
330
1F
100
AcDbEntity
  8
0
  6
Continuous
 62
     7
370
    25
100
AcDbPolyline
 90
        3
 70
   128
 43
0.0
 10
65.0599709455
 20
104.0775221323
 10
65.0924785045
 20
104.4638611651
 10
65.1121106079
 20
104.5591406968
  0
ARC
  5
31A
330
1F
100
AcDbEntity
  8
0
  6
Continuous
 62
     7
370
    25
100
AcDbCircle
 10
68.9542514653
 20
104.1518381539
 30
0.0
 40
3.894989555543753
100
AcDbArc
 50
181.0932642368
 51
246.674186808
  0
LINE
  5
31B
330
1F
100
AcDbEntity
  8
0
  6
Continuous
 62
     7
370
    25
100
AcDbLine
 10
45.2155199778
 20
94.407316965
 30
0.0
 11
45.2155199778
 21
92.0503781398
 31
0.0
  0
LINE
  5
31C
330
1F
100
AcDbEntity
  8
0
  6
Continuous
 62
     7
370
    25
100
AcDbLine
 10
38.4628160553
 20
83.0996476998
 30
0.0
 11
45.2155199778
 21
92.0503781398
 31
0.0
  0
ELLIPSE
  5
31D
330
1F
100
AcDbEntity
  8
0
  6
Continuous
 62
     7
370
    25
100
AcDbEllipse
 10
35.538262831
 20
122.9764410702
 30
0.0
 11
2.499995030687245
 21
0.008600598788675029
 31
0.0
210
0.0
220
0.0
230
1.0
 40
0.5795678193
 41
0.9517525236108308
 42
2.199554611638258
  0
LINE
  5
31E
330
1F
100
AcDbEntity
  8
0
  6
Continuous
 62
     7
370
    25
100
AcDbLine
 10
46.8431316125
 20
94.5899567417
 30
0.0
 11
46.8431316125
 21
92.2130318201
 31
0.0
  0
LINE
  5
31F
330
1F
100
AcDbEntity
  8
0
  6
Continuous
 62
     7
370
    25
100
AcDbLine
 10
46.8431316125
 20
92.2130318201
 30
0.0
 11
51.9654717671
 21
89.2559677917
 31
0.0
  0
LWPOLYLINE
  5
320
330
1F
100
AcDbEntity
  8
0
  6
Continuous
 62
     7
370
    25
100
AcDbPolyline
 90
        3
 70
   128
 43
0.0
 10
28.1489969676
 20
149.9944228548
 10
28.1815045266
 20
150.3807618876
 10
28.20113663
 20
150.4760414193
  0
ARC
  5
321
330
1F
100
AcDbEntity
  8
0
  6
Continuous
 62
     7
370
    25
100
AcDbCircle
 10
32.0432774873
 20
150.0687388765
 30
0.0
 40
3.894989555543609
100
AcDbArc
 50
181.0932642368
 51
246.674186808
  0
ELLIPSE
  5
322
330
1F
100
AcDbEntity
  8
0
  6
Continuous
 62
     7
370
    25
100
AcDbEllipse
 10
46.1360248313
 20
91.819367267
 30
0.0
 11
0.9999631117445065
 21
-0.01515076219757816
 31
0.0
210
0.0
220
0.0
230
1.0
 40
0.5669184219
 41
0.7939875152089456
 42
2.748756277442616
  0
ELLIPSE
  5
323
330
1F
100
AcDbEntity
  8
0
  6
Continuous
 62
     7
370
    25
100
AcDbEllipse
 10
35.538262831
 20
96.9750827146
 30
0.0
 11
2.499907779361302
 21
-0.0378769054939454
 31
0.0
210
0.0
220
0.0
230
1.0
 40
0.5669184219
 41
0.9783984902149463
 42
2.198341501694495
  0
ARC
  5
324
330
1F
100
AcDbEntity
  8
0
  6
Continuous
 62
     7
370
    25
100
AcDbCircle
 10
55.8796918881
 20
85.4155961124
 30
0.0
 40
2.469841635592014
100
AcDbArc
 50
230.6768344174
 51
251.8015199884
  0
LWPOLYLINE
  5
325
330
1F
100
AcDbEntity
  8
0
  6
Continuous
 62
     7
370
    25
100
AcDbPolyline
 90
        3
 70
   128
 43
0.0
 10
15.8453389749
 20
132.4885244237
 10
15.8778465339
 20
132.8748634566
 10
15.8974786373
 20
132.9701429882
  0
ARC
  5
326
330
1F
100
AcDbEntity
  8
0
  6
Continuous
 62
     7
370
    25
100
AcDbCircle
 10
19.7396194947
 20
132.5628404454
 30
0.0
 40
3.894989555543936
100
AcDbArc
 50
181.0932642368
 51
246.6741868079
  0
LINE
  5
327
330
1F
100
AcDbEntity
  8
0
  6
Continuous
 62
     8
370
    25
100
AcDbLine
 10
58.5206567053
 20
91.5225015012
 30
0.0
 11
37.6486202071
 21
103.5716716978
 31
0.0
  0
LINE
  5
328
330
1F
100
AcDbEntity
  8
0
  6
Continuous
 62
     8
370
    25
100
AcDbLine
 10
60.8526855974
 20
90.1757854273
 30
0.0
 11
60.4990747398
 21
90.3799206303
 31
0.0
  0
LINE
  5
329
330
1F
100
AcDbEntity
  8
0
  6
Continuous
 62
     8
370
    25
100
AcDbLine
 10
37.6300122296
 20
109.8659026842
 30
0.0
 11
37.6300122296
 21
109.4067399272
 31
0.0
  0
LINE
  5
32A
330
1F
100
AcDbEntity
  8
0
  6
Continuous
 62
     8
370
    25
100
AcDbLine
 10
52.7154536857
 20
117.2565458336
 30
0.0
 11
52.7154536857
 21
116.3160996808
 31
0.0
  0
LINE
  5
32B
330
1F
100
AcDbEntity
  8
0
  6
Continuous
 62
     8
370
    25
100
AcDbLine
 10
58.7313652539
 20
115.0788605434
 30
0.0
 11
58.5206224592
 21
115.2005197692
 31
0.0
  0
LINE
  5
32C
330
1F
100
AcDbEntity
  8
0
  6
Continuous
 62
     8
370
    25
100
AcDbLine
 10
39.2436515643
 20
103.4673541568
 30
0.0
 11
58.7313652539
 21
92.2173365072
 31
0.0
  0
LINE
  5
32D
330
1F
100
AcDbEntity
  8
0
  6
Continuous
 62
     8
370
    25
100
AcDbLine
 10
37.6300122296
 20
84.0909913651
 30
0.0
 11
37.6300122296
 21
83.6398628067
 31
0.0
  0
LINE
  5
32E
330
1F
100
AcDbEntity
  8
0
  6
Continuous
 62
     8
370
    25
100
AcDbLine
 10
52.7154536857
 20
91.1999373674
 30
0.0
 11
52.7154536857
 21
90.2759466676
 31
0.0
  0
ENDSEC
  0
SECTION
  2
OBJECTS
  0
DICTIONARY
  5
C
330
0
100
AcDbDictionary
281
     1
  3
ACAD_GROUP
350
D
  3
ACAD_LAYOUT
350
1A
  3
ACAD_MLINESTYLE
350
17
  3
ACAD_PLOTSETTINGS
350
19
  3
ACAD_PLOTSTYLENAME
350
E
  3
ACAD_SCALELIST
350
47
  0
DICTIONARY
  5
D
102
{ACAD_REACTORS
330
C
102
}
330
C
100
AcDbDictionary
281
     1
  0
DICTIONARY
  5
1A
102
{ACAD_REACTORS
330
C
102
}
330
C
100
AcDbDictionary
281
     1
  3
Layout1
350
1E
  3
Layout2
350
26
  3
Model
350
22
  0
DICTIONARY
  5
17
102
{ACAD_REACTORS
330
C
102
}
330
C
100
AcDbDictionary
281
     1
  3
Standard
350
18
  0
DICTIONARY
  5
19
102
{ACAD_REACTORS
330
C
102
}
330
C
100
AcDbDictionary
281
     1
  0
ACDBDICTIONARYWDFLT
  5
E
102
{ACAD_REACTORS
330
C
102
}
330
C
100
AcDbDictionary
281
     1
  3
Normal
350
F
100
AcDbDictionaryWithDefault
340
F
  0
DICTIONARY
  5
47
102
{ACAD_REACTORS
330
C
102
}
330
C
100
AcDbDictionary
281
     1
  3
A0
350
48
  3
A1
350
49
  3
A2
350
4A
  3
A3
350
4B
  3
A4
350
4C
  3
A5
350
4D
  3
A6
350
4E
  3
A7
350
4F
  3
A8
350
50
  3
A9
350
51
  3
B0
350
52
  3
B1
350
53
  3
B2
350
54
  3
B3
350
55
  3
B4
350
56
  3
B5
350
57
  3
B6
350
58
  3
B7
350
59
  3
B8
350
5A
  3
B9
350
5B
  3
C0
350
5C
  3
C1
350
5D
  3
C2
350
5E
  3
C3
350
5F
  3
C4
350
60
  3
C5
350
61
  3
C6
350
62
  3
C7
350
63
  3
C8
350
64
  3
C9
350
65
  3
D0
350
66
  3
D1
350
67
  3
D2
350
68
  0
LAYOUT
  5
1E
102
{ACAD_REACTORS
330
1A
102
}
330
1A
100
AcDbPlotSettings
  1

  2
none_device
  4

  6

 40
0.0
 41
0.0
 42
0.0
 43
0.0
 44
0.0
 45
0.0
 46
0.0
 47
0.0
 48
0.0
 49
0.0
140
0.0
141
0.0
142
1.0
143
1.0
 70
   688
 72
     1
 73
     0
 74
     5
  7

 75
    16
147
1.0
148
0.0
149
0.0
100
AcDbLayout
  1
Layout1
 70
     1
 71
     1
 10
0.0
 20
0.0
 11
420.0
 21
297.0
 12
0.0
 22
0.0
 32
0.0
 14
1.0000000000E+20
 24
1.0000000000E+20
 34
1.0000000000E+20
 15
-1.0000000000E+20
 25
-1.0000000000E+20
 35
-1.0000000000E+20
146
0.0
 13
0.0
 23
0.0
 33
0.0
 16
1.0
 26
0.0
 36
0.0
 17
0.0
 27
1.0
 37
0.0
 76
     0
330
1B
  0
LAYOUT
  5
26
102
{ACAD_REACTORS
330
1A
102
}
330
1A
100
AcDbPlotSettings
  1

  2
none_device
  4

  6

 40
0.0
 41
0.0
 42
0.0
 43
0.0
 44
0.0
 45
0.0
 46
0.0
 47
0.0
 48
0.0
 49
0.0
140
0.0
141
0.0
142
1.0
143
1.0
 70
   688
 72
     1
 73
     0
 74
     5
  7

 75
    16
147
1.0
148
0.0
149
0.0
100
AcDbLayout
  1
Layout2
 70
     1
 71
     2
 10
0.0
 20
0.0
 11
0.0
 21
0.0
 12
0.0
 22
0.0
 32
0.0
 14
0.0
 24
0.0
 34
0.0
 15
0.0
 25
0.0
 35
0.0
146
0.0
 13
0.0
 23
0.0
 33
0.0
 16
1.0
 26
0.0
 36
0.0
 17
0.0
 27
1.0
 37
0.0
 76
     0
330
23
  0
LAYOUT
  5
22
102
{ACAD_REACTORS
330
1A
102
}
330
1A
100
AcDbPlotSettings
  1

  2
none_device
  4
Letter_(8.50_x_11.00_Inches)
  6

 40
6.35
 41
6.35
 42
6.35000508
 43
6.35000508
 44
215.9
 45
279.4
 46
0.0
 47
0.0
 48
0.0
 49
0.0
140
0.0
141
0.0
142
1.0
143
1.0
 70
  1712
 72
     1
 73
     0
 74
     0
  7

 75
     0
147
1.0
148
0.0
149
0.0
100
AcDbLayout
  1
Model
 70
     1
 71
     0
 10
0.0
 20
0.0
 11
279.4
 21
215.9
 12
0.0
 22
0.0
 32
0.0
 14
0.0
 24
0.0
 34
0.0
 15
279.4
 25
215.9
 35
0.0
146
0.0
 13
0.0
 23
0.0
 33
0.0
 16
1.0
 26
0.0
 36
0.0
 17
0.0
 27
1.0
 37
0.0
 76
     0
330
1F
331
29
  0
MLINESTYLE
  5
18
102
{ACAD_REACTORS
330
17
102
}
330
17
100
AcDbMlineStyle
  2
Standard
 70
     0
  3

 62
   256
 51
90.0
 52
90.0
 71
     2
 49
0.5
 62
   256
  6
BYLAYER
 49
-0.5
 62
   256
  6
BYLAYER
  0
ACDBPLACEHOLDER
  5
F
102
{ACAD_REACTORS
330
E
102
}
330
E
  0
SCALE
  5
48
102
{ACAD_REACTORS
330
47
102
}
330
47
100
AcDbScale
 70
     0
300
1:1
140
1.0
141
1.0
290
     1
  0
SCALE
  5
49
102
{ACAD_REACTORS
330
47
102
}
330
47
100
AcDbScale
 70
     0
300
1:2
140
1.0
141
2.0
290
     0
  0
SCALE
  5
4A
102
{ACAD_REACTORS
330
47
102
}
330
47
100
AcDbScale
 70
     0
300
1:4
140
1.0
141
4.0
290
     0
  0
SCALE
  5
4B
102
{ACAD_REACTORS
330
47
102
}
330
47
100
AcDbScale
 70
     0
300
1:5
140
1.0
141
5.0
290
     0
  0
SCALE
  5
4C
102
{ACAD_REACTORS
330
47
102
}
330
47
100
AcDbScale
 70
     0
300
1:8
140
1.0
141
8.0
290
     0
  0
SCALE
  5
4D
102
{ACAD_REACTORS
330
47
102
}
330
47
100
AcDbScale
 70
     0
300
1:10
140
1.0
141
10.0
290
     0
  0
SCALE
  5
4E
102
{ACAD_REACTORS
330
47
102
}
330
47
100
AcDbScale
 70
     0
300
1:16
140
1.0
141
16.0
290
     0
  0
SCALE
  5
4F
102
{ACAD_REACTORS
330
47
102
}
330
47
100
AcDbScale
 70
     0
300
1:20
140
1.0
141
20.0
290
     0
  0
SCALE
  5
50
102
{ACAD_REACTORS
330
47
102
}
330
47
100
AcDbScale
 70
     0
300
1:30
140
1.0
141
30.0
290
     0
  0
SCALE
  5
51
102
{ACAD_REACTORS
330
47
102
}
330
47
100
AcDbScale
 70
     0
300
1:40
140
1.0
141
40.0
290
     0
  0
SCALE
  5
52
102
{ACAD_REACTORS
330
47
102
}
330
47
100
AcDbScale
 70
     0
300
1:50
140
1.0
141
50.0
290
     0
  0
SCALE
  5
53
102
{ACAD_REACTORS
330
47
102
}
330
47
100
AcDbScale
 70
     0
300
1:100
140
1.0
141
100.0
290
     0
  0
SCALE
  5
54
102
{ACAD_REACTORS
330
47
102
}
330
47
100
AcDbScale
 70
     0
300
2:1
140
2.0
141
1.0
290
     0
  0
SCALE
  5
55
102
{ACAD_REACTORS
330
47
102
}
330
47
100
AcDbScale
 70
     0
300
4:1
140
4.0
141
1.0
290
     0
  0
SCALE
  5
56
102
{ACAD_REACTORS
330
47
102
}
330
47
100
AcDbScale
 70
     0
300
8:1
140
8.0
141
1.0
290
     0
  0
SCALE
  5
57
102
{ACAD_REACTORS
330
47
102
}
330
47
100
AcDbScale
 70
     0
300
10:1
140
10.0
141
1.0
290
     0
  0
SCALE
  5
58
102
{ACAD_REACTORS
330
47
102
}
330
47
100
AcDbScale
 70
     0
300
100:1
140
100.0
141
1.0
290
     0
  0
SCALE
  5
59
102
{ACAD_REACTORS
330
47
102
}
330
47
100
AcDbScale
 70
     0
300
1/128" = 1'-0"
140
0.0078125
141
12.0
290
     0
  0
SCALE
  5
5A
102
{ACAD_REACTORS
330
47
102
}
330
47
100
AcDbScale
 70
     0
300
1/64" = 1'-0"
140
0.015625
141
12.0
290
     0
  0
SCALE
  5
5B
102
{ACAD_REACTORS
330
47
102
}
330
47
100
AcDbScale
 70
     0
300
1/32" = 1'-0"
140
0.03125
141
12.0
290
     0
  0
SCALE
  5
5C
102
{ACAD_REACTORS
330
47
102
}
330
47
100
AcDbScale
 70
     0
300
1/16" = 1'-0"
140
0.0625
141
12.0
290
     0
  0
SCALE
  5
5D
102
{ACAD_REACTORS
330
47
102
}
330
47
100
AcDbScale
 70
     0
300
3/32" = 1'-0"
140
0.09375
141
12.0
290
     0
  0
SCALE
  5
5E
102
{ACAD_REACTORS
330
47
102
}
330
47
100
AcDbScale
 70
     0
300
1/8" = 1'-0"
140
0.125
141
12.0
290
     0
  0
SCALE
  5
5F
102
{ACAD_REACTORS
330
47
102
}
330
47
100
AcDbScale
 70
     0
300
3/16" = 1'-0"
140
0.1875
141
12.0
290
     0
  0
SCALE
  5
60
102
{ACAD_REACTORS
330
47
102
}
330
47
100
AcDbScale
 70
     0
300
1/4" = 1'-0"
140
0.25
141
12.0
290
     0
  0
SCALE
  5
61
102
{ACAD_REACTORS
330
47
102
}
330
47
100
AcDbScale
 70
     0
300
3/8" = 1'-0"
140
0.375
141
12.0
290
     0
  0
SCALE
  5
62
102
{ACAD_REACTORS
330
47
102
}
330
47
100
AcDbScale
 70
     0
300
1/2" = 1'-0"
140
0.5
141
12.0
290
     0
  0
SCALE
  5
63
102
{ACAD_REACTORS
330
47
102
}
330
47
100
AcDbScale
 70
     0
300
3/4" = 1'-0"
140
0.75
141
12.0
290
     0
  0
SCALE
  5
64
102
{ACAD_REACTORS
330
47
102
}
330
47
100
AcDbScale
 70
     0
300
1" = 1'-0"
140
1.0
141
12.0
290
     0
  0
SCALE
  5
65
102
{ACAD_REACTORS
330
47
102
}
330
47
100
AcDbScale
 70
     0
300
1-1/2" = 1'-0"
140
1.5
141
12.0
290
     0
  0
SCALE
  5
66
102
{ACAD_REACTORS
330
47
102
}
330
47
100
AcDbScale
 70
     0
300
3" = 1'-0"
140
3.0
141
12.0
290
     0
  0
SCALE
  5
67
102
{ACAD_REACTORS
330
47
102
}
330
47
100
AcDbScale
 70
     0
300
6" = 1'-0"
140
6.0
141
12.0
290
     0
  0
SCALE
  5
68
102
{ACAD_REACTORS
330
47
102
}
330
47
100
AcDbScale
 70
     0
300
1'-0" = 1'-0"
140
12.0
141
12.0
290
     0
  0
ENDSEC
  0
EOF
